Photolemur 2 3 0 1775 + Keygen [CracksMind] | Steven Heller, "Becoming a Digital Designer: A Guide to Careers in Web, Video,Broadcast, Game and Animation Design" | The Crossing (2018)

Скачать через торрент [iPad] Жажда смерти Death Wish бесплатно русская версия torrent активатор

Статистика раздачи
Размер:  1.83 GB   |    Зарегистрирован:  7 дней   |    .torrent скачан:  24 раза   |   
Раздают:  1  
   
загрузка...
 
Автор Сообщение

Galfimbul

avatar Galfimbul


Жажда смерти / Death Wish
«Он мстит бодро, весело и со вкусом»

6.502 / 10 6.40 / 10
Год выпуска: 2018
Страна: США
Жанр: Боевик, триллер, криминал
Продолжительность: 01:46:03

Перевод: Дублированный (iTunes)
Оригинальная аудиодорожка: Есть
Cубтитры: Английские
Режиссёр: Элай Рот
Сценарий: Джо Карнахан, Уенделл Майес, Брайан Гарфилд
Продюсер: Роджер Бирнбаум, Марк Котон, Стивен Дж. Идс
Оператор: Рогир Стофферс
Композитор: Людвиг Йоранссон
Художник: Пол Кирби, Вероник Мюнье, Мэри Джейн Форт
Монтаж: Марк Голдблатт, Ивонн Валдез
В ролях: Брюс Уиллис, Винсент Д’Онофрио, Элизабет Шу, Камила Морроне, Дин Норрис, Бо Напп, Кимберли Элиз, Лен Кариу, Джек Кеси, Ронни Джин Блевинс

Бюджет: $30 000 000
Сборы в США: $34 017 028
Сборы в России: $826 191

Мировая премьера: 1 марта 2018
Премьера (РФ): 5 апреля 2018, «Экспонента»

Цифровой релиз: 29 мая 2018, «Экспонента»

Описание: Пол Керси — хирург, привыкший вытаскивать людей с того света после криминальных разборок. Но после того, как его жена и дочь становятся жертвами уличной банды, а полиция бездействует, он берет карающий меч правосудия в свои руки. Видео изобретательных убийств преступников покоряют интернет-топы, а среди жителей города расходятся слухи о неуловимом народном мстителе, которому теперь принадлежит весь город. Он мстит бодро, весело и со вкусом.
Качество исходника: BDRemux (BlueBird)
Качество: BDRip
Тип: SD (576p)
Контейнер: M4V
Видео: H.264, 1024x432, 2.40:1, 2 200 Kbps, 23.976 fps

Аудио 1: Русский/Дублированный (iTunes), AAC / 2.0 / 128 Kbps / 48.0 KHz
Аудио 2: Английский/Оригинальная дорожка , AAC / 2.0 / 128 Kbps / 48.0 KHz

Субтитры: Английские полные
Sort Name: Death Wish
XID: Apple:vendor_id:2018-409171
contentID: 1346258721
Copyright: © 2018 Metro-Goldwyn-Mayer Pictures Inc. All Rights Reserved.
Screenwriters: Джо Карнахан, Уенделл Майес, Брайан Гарфилд
Producers: Роджер Бирнбаум, Марк Котон, Стивен Дж. Идс
Director: Элай Рот
Cast: Брюс Уиллис, Винсент Д`Онофрио, Элизабет Шу, Камила Морроне, Дин Норрис, Бо Напп, Кимберли Элиз, Лен Кариу, Джек Кеси, Ронни Джин Блевинс
Studio: MGM
Rating: 5
Long Description: Пол Керси — хирург, привыкший вытаскивать людей с того света после криминальных разборок. Но после того, как его жена и дочь становятся жертвами уличной банды, а полиция бездействует, он берет карающий меч правосудия в свои руки. Видео изобретательных убийств преступников покоряют интернет-топы, а среди жителей города расходятся слухи о неуловимом народном мстителе, которому теперь принадлежит весь город. Он мстит бодро, весело и со вкусом.
Description: Пол Керси — хирург, привыкший вытаскивать людей с того света после криминальных разборок. Но после того, как его жена и дочь становятся жертвами уличной банды, а полиция бездействует, он берет карающий меч правосудия в свои руки.
Release Date: 2018-03-02T08:00:00Z
Genre: Action & Adventure
Artist: Eli Roth
Name: Death Wish
General
Complete name : /Users/imac/HandBrake/Death.Wish.(SD).(pk).m4v
Format : MPEG-4
Codec ID : M4V
File size : 1.83 GiB
Duration : 1h 46mn
Overall bit rate mode : Variable
Overall bit rate : 2 461 Kbps
Movie name : Death Wish
Performer : Eli Roth
Director : Элай Рот
Actor : Брюс Уиллис / Винсент Д`Онофрио / Элизабет Шу / Камила Морроне / Дин Норрис / Бо Напп / Кимберли Элиз / Лен Кариу / Джек Кеси / Ронни Джин Блевинс
Screenplay by : Джо Карнахан / Уенделл Майес / Брайан Гарфилд
Producer : Роджер Бирнбаум / Марк Котон / Стивен Дж. Идс
Production studio : MGM
Genre : Action & Adventure
ContentType : Short Film
Description : Пол Керси — хирург, привыкший вытаскивать людей с того света после криминальных разборок. Но после того, как его жена и дочь становятся жертвами уличной банды, а полиция бездействует, он берет карающий меч правосудия в свои руки.
Recorded date : UTC 2018-03-02 08:00:00
Encoded date : UTC 2018-07-10 13:48:08
Tagged date : UTC 2018-07-10 13:49:08
Copyright : © 2018 Metro-Goldwyn-Mayer Pictures Inc. All Rights Reserved.
Cover : Yes
Rating : None
Title/Sort : Death Wish
LongDescription : Пол Керси — хирург, привыкший вытаскивать людей с того света после криминальных разборок. Но после того, как его жена и дочь становятся жертвами уличной банды, а полиция бездействует, он берет карающий меч правосудия в свои руки. Видео изобретательных убийств преступников покоряют интернет-топы, а среди жителей города расходятся слухи о неуловимом народном мстителе, которому теперь принадлежит весь город. Он мстит бодро, весело и со вкусом.
AppleStoreCatalogID : 1346258721
Vendor : Apple:vendor_id:2018-409171
ContentRating : mpaa|R|400|

Video #1
ID : 1
Format : AVC
Format/Info : Advanced Video Codec
Format profile : [email protected]
Format settings, CABAC : Yes
Format settings, ReFrames : 9 frames
Codec ID : avc1
Codec ID/Info : Advanced Video Coding
Duration : 1h 46mn
Source duration : 1h 46mn
Bit rate : 2 200 Kbps
Width : 1 024 pixels
Height : 432 pixels
Display aspect ratio : 2.40:1
Frame rate mode : Variable
Frame rate : 23.976 fps
Minimum frame rate : 23.974 fps
Maximum frame rate : 23.981 fps
Color space : YUV
Chroma subsampling : 4:2:0
Bit depth : 8 bits
Scan type : Progressive
Bits/(Pixel*Frame) : 0.207
Stream size : 1.64 GiB (89%)
Source stream size : 1.64 GiB (89%)
Title : Main Program
Writing library : x264 core 155 r2901 7d0ff22
Encoding settings : cabac=1 / ref=9 / deblock=1:0:0 / analyse=0x3:0x113 / me=umh / subme=9 / psy=1 / psy_rd=1.00:0.00 / mixed_ref=1 / me_range=32 / chroma_me=1 / trellis=1 / 8x8dct=1 / cqm=0 / deadzone=21,11 / fast_pskip=1 / chroma_qp_offset=-2 / threads=13 / lookahead_threads=1 / sliced_threads=0 / nr=0 / decimate=1 / interlaced=0 / bluray_compat=0 / constrained_intra=0 / bframes=6 / b_pyramid=2 / b_adapt=2 / b_bias=0 / direct=1 / weightb=1 / open_gop=0 / weightp=2 / keyint=240 / keyint_min=24 / scenecut=40 / intra_refresh=0 / rc_lookahead=40 / rc=2pass / mbtree=1 / bitrate=2200 / ratetol=1.0 / qcomp=0.60 / qpmin=0 / qpmax=69 / qpstep=4 / cplxblur=20.0 / qblur=0.5 / ip_ratio=1.40 / aq=1:1.00
Language : English
Encoded date : UTC 2018-07-10 13:48:08
Tagged date : UTC 2018-07-10 13:48:14
Color range : Limited
Color primaries : BT.709
Transfer characteristics : BT.709
Matrix coefficients : BT.709

Video #2
ID : 6
Format : JPEG
Codec ID : jpeg
Duration : 1h 46mn
Bit rate mode : Variable
Bit rate : 1 295 bps
Width : 640 pixels
Height : 270 pixels
Display aspect ratio : 2.40:1
Frame rate mode : Variable
Frame rate : 0.004 fps
Minimum frame rate : 0.002 fps
Maximum frame rate : 0.006 fps
Color space : YUV
Chroma subsampling : 4:2:0
Bit depth : 8 bits
Compression mode : Lossy
Bits/(Pixel*Frame) : 1.874
Stream size : 949 KiB (0%)
Title : Chapter Images
Language : English
Encoded date : UTC 2018-07-10 13:48:23
Tagged date : UTC 2018-07-10 13:48:24

Audio #1
ID : 2
Format : AAC
Format/Info : Advanced Audio Codec
Format profile : LC
Codec ID : 40
Duration : 1h 46mn
Source duration : 1h 46mn
Bit rate mode : Variable
Bit rate : 126 Kbps
Maximum bit rate : 199 Kbps
Channel(s) : 2 channels
Channel positions : Front: L R
Sampling rate : 48.0 KHz
Compression mode : Lossy
Stream size : 96.0 MiB (5%)
Source stream size : 96.0 MiB (5%)
Title : Russian Stereo
Language : Russian
Encoded date : UTC 2018-07-10 13:48:08
Tagged date : UTC 2018-07-10 13:48:17

Audio #2
ID : 3
Format : AAC
Format/Info : Advanced Audio Codec
Format profile : LC
Codec ID : 40
Duration : 1h 46mn
Source duration : 1h 46mn
Bit rate mode : Variable
Bit rate : 126 Kbps
Maximum bit rate : 212 Kbps
Channel(s) : 2 channels
Channel positions : Front: L R
Sampling rate : 48.0 KHz
Compression mode : Lossy
Stream size : 96.1 MiB (5%)
Source stream size : 96.1 MiB (5%)
Title : English Stereo
Language : English
Encoded date : UTC 2018-07-10 13:48:08
Tagged date : UTC 2018-07-10 13:48:17

Text
ID : 4
Format : Timed Text
Muxing mode : sbtl
Codec ID : tx3g
Duration : 1h 39mn
Bit rate mode : Variable
Bit rate : 76 bps
Stream size : 55.4 KiB (0%)
Title : English full
Language : English
Encoded date : UTC 2018-07-10 13:48:09
Tagged date : UTC 2018-07-10 13:48:09

Menu #1
00:00:00.000 : 00:00:00.000
00:05:39.089 : 00:05:39.089
00:08:51.239 : 00:08:51.239
00:11:55.798 : 00:11:55.798
00:19:12.860 : 00:19:12.860
00:24:34.139 : 00:24:34.139
00:28:37.174 : 00:28:37.174
00:32:45.964 : 00:32:45.964
00:36:15.840 : 00:36:15.840
00:43:49.168 : 00:43:49.168
00:47:10.411 : 00:47:10.411
00:53:49.518 : 00:53:49.518
00:56:56.413 : 00:56:56.330
01:00:27.082 : 01:00:27.082
01:07:55.154 : 01:07:55.154
01:11:16.564 : 01:11:16.564
01:15:52.256 : 01:15:52.256
01:19:23.926 : 01:19:23.926
01:22:41.415 : 01:22:41.415
01:25:43.889 : 01:25:43.889
01:28:20.837 : 01:28:20.837
01:31:24.938 : 01:31:24.813
01:37:14.537 : 01:37:14.537
01:40:07.585 : 01:40:07.585

Menu #2
ID : 5
Codec ID : text
Duration : 1h 46mn
Language : English
Encoded date : UTC 2018-07-10 13:48:17
Tagged date : UTC 2018-07-10 13:48:17
Bit rate mode : CBR
00:00:00.000 : 00:00:00.000
00:05:39.089 : 00:05:39.089
00:08:51.239 : 00:08:51.239
00:11:55.798 : 00:11:55.798
00:19:12.860 : 00:19:12.860
00:24:34.139 : 00:24:34.139
00:28:37.174 : 00:28:37.174
00:32:45.964 : 00:32:45.964
00:36:15.840 : 00:36:15.840
00:43:49.168 : 00:43:49.168
00:47:10.411 : 00:47:10.411
00:53:49.518 : 00:53:49.518
00:56:56.413 : 00:56:56.330
01:00:27.082 : 01:00:27.082
01:07:55.154 : 01:07:55.154
01:11:16.564 : 01:11:16.564
01:15:52.256 : 01:15:52.256
01:19:23.926 : 01:19:23.926
01:22:41.415 : 01:22:41.415
01:25:43.889 : 01:25:43.889
01:28:20.837 : 01:28:20.837
01:31:24.938 : 01:31:24.813
01:37:14.537 : 01:37:14.537
01:40:07.585 : 01:40:07.585
x264 [info]: frame I:1530  Avg QP:11.42  size: 86958
x264 [info]: frame P:33991 Avg QP:14.28  size: 26441
x264 [info]: frame B:118013 Avg QP:16.70  size:  6180
x264 [info]: consecutive B-frames:  2.3%  2.8%  9.2% 20.7% 18.4% 35.8% 10.8%
x264 [info]: mb I  I16..4:  8.8% 66.4% 24.8%
x264 [info]: mb P  I16..4:  1.2%  7.0%  2.2%  P16..4: 31.6% 28.3% 19.2%  0.0%  0.0%    skip:10.5%
x264 [info]: mb B  I16..4:  0.1%  0.4%  0.2%  B16..8: 35.7% 12.4%  3.6%  direct: 4.1%  skip:43.5%  L0:45.1% L1:41.7% BI:13.2%
x264 [info]: 8x8 transform intra:66.7% inter:66.1%
x264 [info]: coded y,uvDC,uvAC intra: 85.5% 84.0% 72.9% inter: 25.5% 23.9% 9.1%
x264 [info]: i16 v,h,dc,p: 36% 15%  7% 42%
x264 [info]: i8 v,h,dc,ddl,ddr,vr,hd,vl,hu: 13% 10%  8%  9% 12% 12% 12% 12% 13%
x264 [info]: i4 v,h,dc,ddl,ddr,vr,hd,vl,hu: 12% 10%  4%  9% 14% 14% 13% 11% 13%
x264 [info]: i8c dc,h,v,p: 47% 19% 19% 14%
x264 [info]: Weighted P-Frames: Y:2.4% UV:1.4%
x264 [info]: ref P L0: 49.5%  9.6% 16.9%  6.8%  5.6%  3.9%  3.6%  2.0%  2.1%  0.1%  0.0%
x264 [info]: ref B L0: 69.4% 13.6%  7.1%  3.6%  2.6%  2.1%  1.2%  0.4%
x264 [info]: ref B L1: 93.1%  6.9%
x264 [info]: kb/s:2200.17

Релиз подготовлен для просмотра на Apple TV, iPad, iPhone, iPod Touch.
Для просмотра данного релиза на компьютере с ОС Windows рекомендуется использовать VLC media player

Трекер:  [ 10-Июл-2018 17:06 ]

  

Скачать .torrent

Размер .torrent файла 37 KB


Размер: 1.83 GB
Хэш (hash) релиза: 7da1d8217570967e91b0094d8e19bb39ab5f6ece

Еще никто не оставлял запись к записи скачать торрент [iPad] Жажда смерти Death Wish . Будь первым!

!Обратная связь