→ Download | Lilyhammer (8) | Águas Rasas (The Shallows) 2016

Скачать через торрент [ATV3] Эскобар Loving Pablo бесплатно русская версия torrent активатор

Статистика раздачи
Размер:  3.74 GB   |    Зарегистрирован:  2 месяца 16 дней   |    .torrent скачан:  26 раз   |   
Раздают:  1  
   
загрузка...
 
Автор Сообщение

Galfimbul

avatar Galfimbul


Эскобар / Loving Pablo
«Всё ещё любишь его?»

6.414 / 10 6.20 / 10
Год выпуска: 2017
Страна: США
Жанр: Биография, драма, криминал
Продолжительность: 929885

Перевод: Дублированный (iTunes)
Оригинальная аудиодорожка: Нет
Cубтитры: Нет
Режиссёр: Фернандо Леон Де Араноа
Сценарий: Фернандо Леон Де Араноа, Вирхиния Вальехо
Продюсер: Хавьер Бардем, Эд Кэйтелл III, Калина Коттас
Оператор: Алекс Каталан
Композитор: Федерико Хусид
Художник: Ален Байне, Иниго Наварро, Лолес Гарсия Галеан
Монтаж: Начо Руис Капильяс
В ролях: Хавьер Бардем, Пенелопа Крус, Питер Сарсгаард, Жульет Рестрепо, Оскар Хаэнада, Фреди Йэт, Рикардо Ниньо, Педро Кальво, Джованни Альварез, Дэвид Валенсиа

Сборы в России: $786 741

Мировая премьера: 6 сентября 2017
Премьера (РФ): 14 июня 2018, «Каскад фильм»

Описание: История восхождения Пабло Эскобара — его стремительного пути к миллиардам, могуществу и непростительным преступлениям. Во всесильного наркобарона влюбляется журналистка, чьи мемуары положены в основу фильма.
Качество исходника: WEB-DL 1080p (BlueBird)
Качество: WEB-DL
Тип: HD (1080p)
Контейнер: M4V
Видео: H.264, 1908x796, 2.40:1, 4 512 Kbps, 23.976 fps

Аудио 1: Русский/Дублированный (iTunes), AAC / 2.0 / 160 Kbps / 48.0 KHz
Аудио 2: Русский/Дублированный (iTunes), AC-3 / 5.1 / 384 Kbps / 48.0 KHz
Sort Name: Эскобар
XID: Apple:vendor_id:2017-929885
contentID: 1406682356
Screenwriters: Фернандо Леон Де Араноа, Вирхиния Вальехо
Producers: Хавьер Бардем, Эд Кэйтелл III, Калина Коттас
Director: Фернандо Леон Де Араноа
Cast: Хавьер Бардем, Пенелопа Крус, Питер Сарсгаард, Жульет Рестрепо, Оскар Хаенада, Фреди Йэт, Рикардо Ниньо, Педро Кальво, Джованни Альварез, Дэвид Валенсиа
Studio: Escobar Films, B2Y EOOD
Rating: 136
Long Description: История восхождения Пабло Эскобара — его стремительного пути к миллиардам, могуществу и непростительным преступлениям. Во всесильного наркобарона влюбляется журналистка, чьи мемуары положены в основу фильма.
Description: История восхождения Пабло Эскобара — его стремительного пути к миллиардам, могуществу и непростительным преступлениям. Во всесильного наркобарона влюбляется журналистка, чьи мемуары положены в основу фильма.
Release Date: 2018-06-14T07:00:00Z
Genre: Боевики и приключения
Artist: Fernando León de Aranoa
Name: Эскобар
General
Complete name : /Users/imac/HandBrake/Loving.Pablo.WEB-DL.1080p.m4v
Format : MPEG-4
Codec ID : M4V
File size : 3.74 GiB
Duration : 1h 45mn
Overall bit rate mode : Variable
Overall bit rate : 5 059 Kbps
Movie name : Эскобар
Performer : Fernando León de Aranoa
Director : Фернандо Леон Де Араноа
Actor : Хавьер Бардем / Пенелопа Крус / Питер Сарсгаард / Жульет Рестрепо / Оскар Хаенада / Фреди Йэт / Рикардо Ниньо / Педро Кальво / Джованни Альварез / Дэвид Валенсиа
Screenplay by : Фернандо Леон Де Араноа / Вирхиния Вальехо
Producer : Хавьер Бардем / Эд Кэйтелл III / Калина Коттас
Production studio : Escobar Films, B2Y EOOD
Genre : Боевики и приключения
ContentType : Short Film
Description : История восхождения Пабло Эскобара — его стремительного пути к миллиардам, могуществу и непростительным преступлениям. Во всесильного наркобарона влюбляется журналистка, чьи мемуары положены в основу фильма.
Recorded date : UTC 2018-06-14 07:00:00
Encoded date : UTC 2018-07-10 12:48:29
Tagged date : UTC 2018-07-10 12:51:10
Cover : Yes
Rating : None
Title/Sort : Эскобар
LongDescription : История восхождения Пабло Эскобара — его стремительного пути к миллиардам, могуществу и непростительным преступлениям. Во всесильного наркобарона влюбляется журналистка, чьи мемуары положены в основу фильма.
AppleStoreCatalogID : 1406682356
Vendor : Apple:vendor_id:2017-929885
ContentRating : ru-movie|18+|400|

Video #1
ID : 1
Format : AVC
Format/Info : Advanced Video Codec
Format profile : [email protected]
Format settings, CABAC : Yes
Format settings, ReFrames : 5 frames
Codec ID : avc1
Codec ID/Info : Advanced Video Coding
Duration : 1h 45mn
Bit rate : 4 512 Kbps
Width : 1 908 pixels
Height : 796 pixels
Display aspect ratio : 2.40:1
Frame rate mode : Variable
Frame rate : 23.976 fps
Minimum frame rate : 23.810 fps
Maximum frame rate : 24.390 fps
Color space : YUV
Chroma subsampling : 4:2:0
Bit depth : 8 bits
Scan type : Progressive
Bits/(Pixel*Frame) : 0.124
Stream size : 3.34 GiB (89%)
Title : Main Program
Language : English
Encoded date : UTC 2018-07-10 12:48:29
Tagged date : UTC 2018-07-10 12:48:52
Color range : Limited
Color primaries : BT.709
Transfer characteristics : BT.709
Matrix coefficients : BT.709

Video #2
ID : 5
Format : JPEG
Codec ID : jpeg
Duration : 1h 45mn
Bit rate mode : Variable
Bit rate : 662 bps
Width : 640 pixels
Height : 267 pixels
Display aspect ratio : 2.40:1
Frame rate mode : Variable
Frame rate : 0.002 fps
Minimum frame rate : 0.001 fps
Maximum frame rate : 0.006 fps
Color space : YUV
Chroma subsampling : 4:2:0
Bit depth : 8 bits
Compression mode : Lossy
Bits/(Pixel*Frame) : 1.937
Stream size : 485 KiB (0%)
Title : Chapter Images
Language : English
Encoded date : UTC 2018-07-10 12:48:57
Tagged date : UTC 2018-07-10 12:48:57

Audio #1
ID : 2
Format : AAC
Format/Info : Advanced Audio Codec
Format profile : LC
Codec ID : 40
Duration : 1h 45mn
Source duration : 1h 45mn
Bit rate mode : Variable
Bit rate : 156 Kbps
Maximum bit rate : 228 Kbps
Channel(s) : 2 channels
Channel positions : Front: L R
Sampling rate : 48.0 KHz
Compression mode : Lossy
Stream size : 118 MiB (3%)
Source stream size : 118 MiB (3%)
Title : Russian Stereo
Language : Russian
Encoded date : UTC 2018-07-10 12:48:29
Tagged date : UTC 2018-07-10 12:48:35

Audio #2
ID : 3
Format : AC-3
Format/Info : Audio Coding 3
Mode extension : CM (complete main)
Format settings, Endianness : Big
Codec ID : ac-3
Duration : 1h 45mn
Bit rate mode : Constant
Bit rate : 384 Kbps
Channel(s) : 6 channels
Channel positions : Front: L C R, Side: L R, LFE
Sampling rate : 48.0 KHz
Bit depth : 16 bits
Compression mode : Lossy
Stream size : 291 MiB (8%)
Title : Russian DD 5.1
Language : Russian
Encoded date : UTC 2018-07-10 12:48:29
Tagged date : UTC 2018-07-10 12:48:52

Menu #1
00:00:00.000 : 1
00:02:47.000 : 2
00:13:05.000 : 3
00:23:39.000 : 4
00:34:37.000 : 5
00:45:46.000 : 6
00:55:39.000 : 7
01:04:46.000 : 8
01:13:29.000 : 9
01:22:51.000 : 10
01:32:34.000 : 11
01:39:48.000 : 12

Menu #2
ID : 4
Codec ID : text
Duration : 1h 45mn
Language : English
Encoded date : UTC 2018-07-10 12:48:53
Tagged date : UTC 2018-07-10 12:48:53
00:00:00.000 : 1
00:02:47.000 : 2
00:13:05.000 : 3
00:23:39.000 : 4
00:34:37.000 : 5
00:45:46.000 : 6
00:55:39.000 : 7
01:04:46.000 : 8
01:13:29.000 : 9
01:22:51.000 : 10
01:32:34.000 : 11
01:39:48.000 : 12
Bit rate mode : VBR

Релиз подготовлен для просмотра на Apple TV, iPad, iPhone, iPod Touch.
Для просмотра данного релиза на компьютере с ОС Windows рекомендуется использовать VLC media player

Трекер:  [ 10-Июл-2018 16:36 ]

  

Скачать .torrent

Размер .torrent файла 38 KB


Размер: 3.74 GB
Хэш (hash) релиза: 83a12c1779d7e51b98be4e71e8ba3c614a86fc15

Еще никто не оставлял запись к записи скачать торрент [ATV3] Эскобар Loving Pablo . Будь первым!

!Обратная связь