Invitados | Други | Circuit theory by a chakrabarti free download pdf

Скачать через торрент Смешарики. Дежавю Фильм бесплатно в хорошем качестве torrent

Скачивайте на UnionPeer.org фильмы через торрент без регистрации. Новинки кино в хорошем качестве через торрент. На UnionPeer.org можно скачать через торрент фильмы 2014 и 2015 годов. Самые новые фильмы.

Скачать торрент Смешарики. Дежавю бесплатно через .torrent фильм мультфильм сериал

Статистика раздачи
Размер:  1.43 GB   |    Зарегистрирован:  7 дней   |    .torrent скачан:  58 раз   |   
Раздают:  2  
   
загрузка...
 
Автор Сообщение

Galfimbul

avatar Galfimbul


Смешарики. Дежавю



[b]Год выхода:
2018
Жанр: Мультфильм, комедия, приключения, семейный
Страна: Россия
Перевод: Не требуется
Продолжительность: 01:25:03
Режиссер: Денис Чернов
Роли дублировали: Павел Деревянко, Антон Виноградов, Сергей Мардарь, Михаил Черняк, Владимир Постников, Светлана Письмиченко, Вадим Бочанов, Михаил Хрусталёв и др.

О фильме: Крош решает устроить незабываемый день рождения Копатыча — он обращается в агентство «Дежавю», которое обещает своим клиентам удивительные путешествия во времени. Но из-за несоблюдения условий договора всех смешариков раскидывает во времени, а Крошу придется собирать друзей по разным эпохам в компании своего второго «Я» — повзрослевшего и ворчливого Шорка, появившегося из-за временного парадокса.



Файл
Формат: AVI
Качество: BDRip
Видео: Xvid, 720x304, ~1946 kbps, 24,000 fps
Звук: русский, AC3 5.1, 48 kHz, 448 kbps | Лицензия
Субтитры: нет
General
Полное имя : F:TorrentSmeshariki2018BDRipAVI.avi
Формат : AVI
Формат/Информация : Audio Video Interleave
Размер файла : 1.43 GiB
Продолжительность : 1 h 25 min
Общий поток : 2 403 kb/s
Библиотека кодирования : VirtualDub build 35491/release

Video
Идентификатор : 0
Формат : MPEG-4 Visual
Профиль формата : Advanced [email protected]
Настройки формата : BVOP2 / Custom Matrix
Параметр BVOP формата : 2
Параметр QPel формата : No
Параметр GMC формата : No warppoints
Параметр матрицы формата : Custom
Идентификатор кодека : XVID
Идентификатор кодека/Подсказка : XviD
Продолжительность : 1 h 25 min
Битрейт : 1 946 kb/s
Ширина : 720 pixels
Высота : 304 pixels
Соотношение сторон : 2.35:1
Частота кадров : 24.000 FPS
Цветовое пространство : YUV
Субдискретизация насыщенности : 4:2:0
Битовая глубина : 8 bits
Тип развёртки : Progressive
Метод сжатия : Lossy
Бит/(Пиксели*Кадры) : 0.370
Размер потока : 1.16 GiB (81%)
Библиотека кодирования : XviD 67

Audio
Идентификатор : 1
Формат : AC-3
Формат/Информация : Audio Coding 3
Идентификатор кодека : 2000
Продолжительность : 1 h 25 min
Вид битрейта : Constant
Битрейт : 448 kb/s
Каналы : 6 channels
Расположение каналов : Front: L C R, Side: L R, LFE
Частота : 48.0 kHz
Частота кадров : 31.250 FPS (1536 SPF)
Битовая глубина : 16 bits
Метод сжатия : Lossy
Размер потока : 273 MiB (19%)
Выравнивание : Aligned on interleaves
Продолжительность промежутка : 42 ms (1.00 video frame)
Время предзагрузки промежутка : 512 ms
Источник http://BlaTor.org

Трекер:  [ 10-Июл-2018 16:20 ]

  

Скачать .torrent

Размер .torrent файла 15 KB


Размер: 1.43 GB
Хэш (hash) релиза: 0873d50cc497c7d71020b5b78174ace059d68fa4
Подписка на обновления:

Торренты, похожие на Смешарики. Дежавю скачать торрент

Форум Название Автор Размер S L Добавлен
Мультфильмы 2016-2018 (Новинки мультфильмов) ·%· Смешарики. Дежавю (2018) HDRip от ExKinoRay | Лицензия Galfimbul 780847104745 MB 3 0 1531313411

15:50

11-Июл-18

Мультфильмы 2016-2018 (Новинки мультфильмов) ·%· Смешарики. Дежавю (2018) BDRip-AVC | Лицензия Galfimbul 18121072941.69 GB 0 0 1531228837

16:20

10-Июл-18

Мультфильмы 2016-2018 (Новинки мультфильмов) ·%· Смешарики. Дежавю (2018) BDRip 720p | Лицензия Galfimbul 45606437384.25 GB 2 0 1531228819

16:20

10-Июл-18

Мультфильмы 2016-2018 (Новинки мультфильмов) ·%· Смешарики. Дежавю (2018) BDRip 1080p | Лицензия Galfimbul 74306540256.92 GB 2 0 1531228811

16:20

10-Июл-18

Мультфильмы до 2016 ·· Смешарики. Дежавю (Денис Чернов) [2018, мультфильм, комедия, приключения, семейный, WEB-DLRip] Galfimbul 778788864743 MB 0 0 1528392740

20:32

7-Июн-18

Мультфильмы до 2016 ·· Смешарики. Дежавю (Денис Чернов) [2018, мультфильм, комедия, приключения, семейный, WEB-DLRip] Galfimbul 15626772481.46 GB 4 0 1528374654

15:30

7-Июн-18

Еще никто не оставлял запись к записи скачать торрент Смешарики. Дежавю . Будь первым!

!Обратная связь