Danny Phantom | Family Guy | Drama Stage

Скачать через торрент Колония Colony Фильм бесплатно в хорошем качестве torrent

Скачивайте на UnionPeer.org фильмы через торрент без регистрации. Новинки кино в хорошем качестве через торрент. На UnionPeer.org можно скачать через торрент фильмы 2014 и 2015 годов. Самые новые фильмы.

Скачать торрент Колония Colony бесплатно через .torrent фильм мультфильм сериал

Статистика раздачи
Размер:  14.13 GB   |    Зарегистрирован:  7 дней   |    .torrent скачан:  29 раз   |   
Раздают:  1  
   
загрузка...
 
Автор Сообщение

Galfimbul

avatar Galfimbul


Колония / Colony
Год выпуска: 2018
Страна: США
Жанр: Фантастика
Продолжительность: ~00:45:00
Перевод: Профессиональный (многоголосый закадровый) NewStudio
Режиссёр: Хуан Хосе Кампанелла
В ролях: Джош Холлоуэй, Сара Уэйн Кэллис, Питер Джекобсон, Аманда Ригетти, Алекс Нюстадтер, Изабелла Крамп и др.
Описание: В ближайшем будущем семья пытается спасти жителей оккупированного Лос-Анджелеса. Бывший агент ФБР Уилл Боумэн и его супруга Кейти пробуют вернуть сына.
Уилл готов работать на новое правительство, тогда как многие в городе поддерживают повстанцев. Лидер режима Прокси Снайдер предлагает Уиллу сделку, которая изменит их жизнь и заставит семью пойти на большой риск.


Качество: WEB-DL 720p
Контейнер: MKV
Видео: AVC\H.264, 1280x720 (16:9), 23,976 fps, ~4011 kbps
Аудио # RUS: AC3, 48 KHz, 6 ch, 384 kbps
Аудио # ENG: AC3, 48 KHz, 6 ch, 384 kbps
Субтитры: Отсутствуют
Реклама: Отсутствует
<div class="post-box-default">
<div class="post-box">Предыдущие и альтернативные раздачи</div>
</div>
Общее
Уникальный идентификатор : 134197147303306362711946193902603093240 (0x64F56E3198A1D7D407EA5FCFDC4844F8)
Полное имя : D:\Distributions\Colony\Colony.s03e01.WEBDL.720p.NewStudio.mkv
Формат : Matroska
Версия формата : Version 4 / Version 2
Размер файла : 1,38 Гбайт
Продолжительность : 41 м. 13 с.
Общий поток : 4781 Кбит/сек
Дата кодирования : UTC 2018-07-08 20:03:29
Программа кодирования : mkvmerge v24.0.0 ('Beyond The Pale') 64-bit
Библиотека кодирования : libebml v1.3.6 + libmatroska v1.4.9

Видео
Идентификатор : 1
Формат : AVC
Формат/Информация : Advanced Video Codec
Профиль формата : [email protected]
Настройки формата : 2 Ref Frames
Параметр CABAC формата : Нет
Параметр RefFrames формата : 2 кадра
Идентификатор кодека : V_MPEG4/ISO/AVC
Продолжительность : 41 м. 13 с.
Битрейт : 4011 Кбит/сек
Ширина : 1280 пикселей
Высота : 720 пикселей
Соотношение сторон : 16:9
Режим частоты кадров : Постоянный
Частота кадров : 23,976 (23976/1000) кадра/сек
Цветовое пространство : YUV
Субдискретизация насыщенности : 4:2:0
Битовая глубина : 8 бит
Тип развёртки : Прогрессивная
Бит/(Пиксели*Кадры) : 0.182
Размер потока : 1,16 Гбайт (84%)
Язык : English
Default : Да
Forced : Нет
Цветовой диапазон : Limited
Основные цвета : BT.709
Характеристики трансфера : BT.709
Коэффициенты матрицы : BT.709

Аудио #1
Идентификатор : 2
Формат : AC-3
Формат/Информация : Audio Coding 3
Идентификатор кодека : A_AC3
Продолжительность : 41 м. 13 с.
Вид битрейта : Постоянный
Битрейт : 384 Кбит/сек
Каналы : 6 каналов
Расположение каналов : Front: L C R, Side: L R, LFE
Частота : 48,0 КГц
Частота кадров : 31,250 кадров/сек (1536 SPF)
Битовая глубина : 16 бит
Метод сжатия : С потерями
Размер потока : 113 Мбайт (8%)
Язык : Russian
ServiceKind/String : Complete Main
Default : Да
Forced : Да

Аудио #2
Идентификатор : 3
Формат : AC-3
Формат/Информация : Audio Coding 3
Идентификатор кодека : A_AC3
Продолжительность : 41 м. 13 с.
Вид битрейта : Постоянный
Битрейт : 384 Кбит/сек
Каналы : 6 каналов
Расположение каналов : Front: L C R, Side: L R, LFE
Частота : 48,0 КГц
Частота кадров : 31,250 кадров/сек (1536 SPF)
Битовая глубина : 16 бит
Метод сжатия : С потерями
Размер потока : 113 Мбайт (8%)
Язык : English
ServiceKind/String : Complete Main
Default : Нет
Forced : Нет
Когда раздача ведётся путём добавления новых серий, при каждом добавлении создётся новый торрент. Чтобы начать докачку новой серии, пользователям необходимо сделать следующее:
(1) остановить скачивание,
(2) удалить старый торрент у себя из клиента (старые серии удалять не надо),
(3) скачать новый торрент и запустить его у себя в клиенте вместо старого, при этом указать клиенту путь в старую папку, куда и должно происходить скачивание новых серий.
Ваш клиент при этом должен произвести хеширование (проверку) старой папки (если не производит сам - помогите ему сделать это), и будет докачивать только те серии, которых у вас ещё нет. Старые серии при этом не удаляются, а продолжают раздаваться!
Eсли вы уже удалили старые серии, то предотвратить повторную закачку старых серий можно, отжав галочку в соответсвующих местах при запуске нового торрента. По возможности, желательно не удалять старые серии как можно дольше, чтобы релизёр не столько продолжал раздавать старые серии, а смог сконцентрироваться на новых.


Трекер:  [ 10-Июл-2018 16:18 ]

  

Скачать .torrent

Размер .torrent файла 36 KB


Размер: 14.13 GB
Хэш (hash) релиза: 1c2d0bedf157386ea5800d136525a9f13addd05f
Подписка на обновления:

Еще никто не оставлял запись к записи скачать торрент Колония Colony . Будь первым!

!Обратная связь