PIXILLION IMAGE | RAY DONOVAN | Stand Up все сезоны

Скачать через торрент Садко Фильм бесплатно в хорошем качестве torrent

Скачивайте на UnionPeer.org фильмы через торрент без регистрации. Новинки кино в хорошем качестве через торрент. На UnionPeer.org можно скачать через торрент фильмы 2014 и 2015 годов. Самые новые фильмы.

Скачать торрент Садко бесплатно через .torrent фильм мультфильм сериал

Статистика раздачи
Размер:  1.46 GB   |    Зарегистрирован:  2 месяца 16 дней   |    .torrent скачан:  86 раз   |   
Раздают:  1  
   
загрузка...
 
Автор Сообщение

Galfimbul

avatar Galfimbul


Садко

Страна: Россия
Жанр: мультфильм, комедия, семейный
Год выпуска: 2017
Продолжительность: 01:17:50
Субтитры: нет
Режиссер: Максим Волков, Виталий Мухаметзянов
Роли озвучивали: Тимур Гарипов, Любовь Аксенова, Екатерина Варнава, Мария Шалаева, Михаил Ефремов, Дмитрий Филимонов, Данис Галиуллин, Руслан Ронич, Анатолий Константинов, Диомид Виноградов
Описание: Хоть беги, хоть не беги, а от любви нигде не скрыться. Ни в палатах новгородского князя, ни на дне морском. Особенно, если зовут тебя Садко, и ты симпатичный веселый парень. К тому же, на гуслях играть мастак. Вот только за настоящую любовь еще и повоевать придется. Да не с кем-нибудь, а с подводной ведьмой Барракудой. Но любовь все равно победит. Вот увидите!

Качество видео: WEB-DLRip
Формат видео: AVI

Видео: 720x304 (2.37:1), 25 fps, XviD build 73 ~2283 kbps avg, 0.42 bit/pixel
Аудио: 48 kHz, AC3 Dolby Digital, 3/2 (L,C,R,l,r) + LFE ch, ~384 kbps
<div class="post-box-default">
<div class="post-box">Сэмпл</div>
</div>
Формат                                   : AVI
Формат/Информация                        : Audio Video Interleave
Размер файла                             : 1,46 Гбайт
Продолжительность                        : 1 ч. 17 м.
Общий поток                              : 2677 Кбит/сек
Программа кодирования                    : VirtualDubMod 1.5.10.3 | www.virtualdub-fr.org || (build 2550/release)
Библиотека кодирования                   : VirtualDubMod build 2550/release

Видео
Идентификатор                            : 0
Формат                                   : MPEG-4 Visual
Профиль формата                          : Advanced [email protected]
Настройки формата                        : BVOP1 / Custom Matrix
Параметр BVOP формата                    : 1
Параметр QPel формата                    : Нет
Параметр GMC формата                     : Без точки перехода
Параметр матрицы формата                 : Выборочная
Идентификатор кодека                     : XVID
Идентификатор кодека/Подсказка           : XviD
Продолжительность                        : 1 ч. 17 м.
Битрейт                                  : 2283 Кбит/сек
Ширина                                   : 720 пикселей
Высота                                   : 304 пикселя
Соотношение сторон                       : 2,35:1
Частота кадров                           : 25,000 кадров/сек
Цветовое пространство                    : YUV
Субдискретизация насыщенности            : 4:2:0
Битовая глубина                          : 8 бит
Тип развёртки                            : Прогрессивная
Метод сжатия                             : С потерями
Бит/(Пиксели*Кадры)                      : 0.417
Размер потока                            : 1,24 Гбайт (85%)
Библиотека кодирования                   : XviD 73

Аудио
Идентификатор                            : 1
Формат                                   : AC-3
Формат/Информация                        : Audio Coding 3
Идентификатор кодека                     : 2000
Продолжительность                        : 1 ч. 17 м.
Вид битрейта                             : Постоянный
Битрейт                                  : 384 Кбит/сек
Каналы                                   : 6 каналов
Расположение каналов                     : Front: L C R, Side: L R, LFE
Частота                                  : 48,0 КГц
Частота кадров                           : 31,250 кадров/сек (1536 SPF)
Битовая глубина                          : 16 бит
Метод сжатия                             : С потерями
Размер потока                            : 214 Мбайт (14%)
Выравнивание                             : Разделение по промежуткам
Продолжительность промежутка             : 40  мс. (1,00 видеокадр)
Время предзагрузки промежутка            : 500  мс.
ServiceKind/String                       : Complete Main


Трекер:  [ 10-Июл-2018 13:30 ]

  

Скачать .torrent

Размер .torrent файла 15 KB


Размер: 1.46 GB
Хэш (hash) релиза: ddf21477867f6bba9ed4f4e4fdaf5fb44874ad6d
Подписка на обновления:

Торренты, похожие на Садко скачать торрент

Форум Название Автор Размер S L Добавлен
Мультфильмы 2016-2018 (Новинки мультфильмов) ·%· Садко (2017) WEB-DL 720p | iTunes Galfimbul 26481437162.47 GB 0 0 1533577886

20:51

6-Авг-18

Мультфильмы 2016-2018 (Новинки мультфильмов) ·%· Садко (2017) WEB-DLRip-AVC от OlLanDGroup | iTunes Galfimbul 781926530746 MB 0 0 1531663229

17:00

15-Июл-18

Мультфильмы 2016-2018 (Новинки мультфильмов) ·%· Садко (2017) WEB-DLRip от GeneralFilm | iTunes Galfimbul 11674972161.09 GB 0 0 1531414853

20:00

12-Июл-18

Мультфильмы 2016-2018 (Новинки мультфильмов) ·%· Садко (2017) WEB-DLRip от GeneralFilm | iTunes Galfimbul 780228608744 MB 0 0 1531329020

20:10

11-Июл-18

Мультфильмы 2016-2018 (Новинки мультфильмов) ·%· Садко (2017) WEB-DL 1080p | iTunes Galfimbul 29323011152.73 GB 0 0 1531252812

23:00

10-Июл-18

Еще никто не оставлял запись к записи скачать торрент Садко . Будь первым!

!Обратная связь