Kimi ga Aruji de Shitsuji ga Ore de | Geoffrey Owens | Thirteen

Скачать через торрент Комик в городе. Екатеринбург Фильм бесплатно в хорошем качестве torrent

Скачивайте на UnionPeer.org фильмы через торрент без регистрации. Новинки кино в хорошем качестве через торрент. На UnionPeer.org можно скачать через торрент фильмы 2014 и 2015 годов. Самые новые фильмы.

Скачать торрент Комик в городе. Екатеринбург бесплатно через .torrent фильм мультфильм сериал

Статистика раздачи
Размер:  704 MB   |    Зарегистрирован:  7 дней   |    .torrent скачан:  27 раз   |   
Раздают:  1  
   
загрузка...
 
Автор Сообщение

Galfimbul

avatar Galfimbul


Комик в городе. Екатеринбург (выпуск 4-й от 11-03-2018)

Дата/Год выпуска: 2018
Страна: Россия
Жанр: Юмор
Продолжительность: 00:23:09
Перевод: Не требуется
Режиссер: Роман Новиков
Телеканал: ТНТ HD
В ролях: Руслан Белый

Описание: Один из тех немногих городов, из которого необязательно уезжать в Москву – Екатеринбург Руслану Белому понравился. Но проект Комик в городе предполагает, что над городом надо постебаться, поэтому пришлось стебаться. Что общего у Екатеринбурга с Санкт-Петербургом, почему шарфики не в моде и какие на Урале художники – смотрите в новом выпуске.

качество: HDTV 1080i
формат: MKV
Видео: 1920x1080 (16:9), 25.000 fps, AVC ~3 971 kbps avg
Аудио: AC3, 192 kbps, 48 kHz, 2 ch
GeneralUnique ID : 180280484343257297034605771004129809425 (0x87A0C22129CC160BABEBC52AC84B9411)Complete name : E:\Download\Komik v gorode.Vypusk 04.Ekaterinburg.mkvFormat : MatroskaFormat version : Version 2File size : 704 MiBDuration : 23mn 9sOverall bit rate mode : VariableOverall bit rate : 4 248 KbpsEncoded date : UTC 2018-07-10 04:11:27Writing application : mkvmerge v6.1.0 ('Old Devil') built on Mar 4 2013 09:10:42Writing library : libebml v1.3.0 + libmatroska v1.4.0

VideoID : 1Format : AVCFormat/Info : Advanced Video CodecFormat profile : [email protected] settings, CABAC : YesFormat settings, ReFrames : 4 framesCodec ID : V_MPEG4/ISO/AVCDuration : 23mn 9sBit rate mode : VariableBit rate : 3 971 KbpsMaximum bit rate : 4 500 KbpsWidth : 1 920 pixelsHeight : 1 080 pixelsDisplay aspect ratio : 16:9Frame rate mode : ConstantFrame rate : 25.000 fpsColor space : YUVChroma subsampling : 4:2:0Bit depth : 8 bitsScan type : ProgressiveBits/(Pixel*Frame) : 0.077Stream size : 658 MiB (93%)Default : YesForced : No

AudioID : 2Format : AC-3Format/Info : Audio Coding 3Mode extension : CM (complete main)Format settings, Endianness : BigCodec ID : A_AC3Duration : 23mn 9sBit rate mode : ConstantBit rate : 192 KbpsChannel count : 2 channelsChannel positions : Front: L RSampling rate : 48.0 KHzBit depth : 16 bitsCompression mode : LossyStream size : 31.8 MiB (5%)Default : YesForced : No


Трекер:  [ 10-Июл-2018 07:42 ]

  

Скачать .torrent

Размер .torrent файла 14 KB


Размер: 704 MB
Хэш (hash) релиза: 72d29713abc377fc7fe84560f6da8fd7f8faecf5
Подписка на обновления:

Еще никто не оставлял запись к записи скачать торрент Комик в городе. Екатеринбург . Будь первым!

!Обратная связь