the damsel and the daggerman a blud novella by dawson delilah s | HD Vixen - The Movie (2017) | Далее

Скачать через торрент Sпарта Серии: 1 из 8 Фильм бесплатно в хорошем качестве torrent

Скачивайте на UnionPeer.org фильмы через торрент без регистрации. Новинки кино в хорошем качестве через торрент. На UnionPeer.org можно скачать через торрент фильмы 2014 и 2015 годов. Самые новые фильмы.

Скачать торрент Sпарта Серии: 1 из 8 бесплатно через .torrent фильм мультфильм сериал

Статистика раздачи
Размер:  763 MB   |    Зарегистрирован:  1 месяц 6 дней   |    .torrent скачан:  41 раз   |   
Раздают:  1  
   
загрузка...
 
Автор Сообщение

Galfimbul

avatar Galfimbul


Sпарта

Год выпуска: 2017
Производство: ПЦ "Среда"
Жанр: драма, детектив
Продолжительность: ~00:53:00 серия
Субтитры: нет

Режиссёр: Егор Баранов

В ролях: Александр Петров, Артём Ткаченко, Алиса Лозовская, Валерия Шкирандо, Олег Гаас, Яна Енжаева, Оксана Базилевич, Ольга Сутулова, Роман Агеев, Михаил Грубов, Филипп Горенштейн, Ян Гахарманов, Юлия Марченко, Марина Калецкая, Мария Смольникова, Алла Еминцева, Ольга Виниченко, Марина Даминева, Ольга Павлюкова

Описание: Безобидной лжи не бывает. Даже самая потаенная мысль рано или поздно пересекает границы души и оказывается в реальности настоящего времени. Представьте, что такая реальность материальна, она действительно существует, и ваши самые безжалостные фантазии находят в ней воплощение. Эта история о человеке, для которого власть, вседозволенность, безнаказанность слились воедино… «Sпарта» — это игра без правил, в которой виртуальное становится реальным.

Реклама: Нет.

Кинопоиск
Все раздачи сериала
Sample

Качество: HDTVRip - olegka7373 (GeneralFilm)
Формат: AVI
Видео кодек: XviD
Аудио кодек: AC3
Видео: 720x400 (1.80:1), 25 fps, XviD build 73 ~1800 kbps avg, 0.250 bit/pixel
Аудио: 48.0 kHz, AC3 Dolby Digital, 2/0 (L,R) ch, ~ 192 kbps
Раздача ведётся путём добавления новых серий, при каждом добавлении создаётся новый торрент. Чтобы начать докачку новой серии, пользователям необходимо сделать следующее:

- Остановить скачивание.
- Удалить старый торрент у себя из клиента (старые серии удалять не надо).
- Скачать новый торрент и запустить его у себя в клиенте вместо старого, при этом указать клиенту путь в старую папку куда и должно происходить скачивание новых серий.

Ваш клиент при этом должен произвести хеширование (проверку) старой папки (если не производит сам - помогите ему сделать это), и будет докачивать только те серии которых у вас ещё нет. Старые серии при этом не удаляются, а продолжают раздаваться!
Если вы уже удалили старые серии, то предотвратить повторную закачку старых серий можно, отжав галочку в соответствующих местах при запуске нового торрента. По возможности, желательно не удалять старые серии как можно дольше, чтобы релизер не столько продолжал раздавать старые серии, а смог сконцентрироваться на новых.
General
Complete name : D:\Sпарта.HDTVRip.GeneralFilm\01.Sпарта.HDTVRip.GeneralFilm.avi
Format : AVI
Format/Info : Audio Video Interleave
File size : 763 MiB
Duration : 53 min 18 s
Overall bit rate : 2 002 kb/s
Writing application : VirtualDubMod 1.5.10.3 | www.virtualdub-fr.org || (build 2550/release)
Writing library : VirtualDubMod build 2550/release

Video
ID : 0
Format : MPEG-4 Visual
Format profile : Advanced [email protected]
Format settings : BVOP1 / Custom Matrix
Format settings, BVOP : 1
Format settings, QPel : No
Format settings, GMC : No warppoints
Format settings, Matrix : Custom
Codec ID : XVID
Codec ID/Hint : XviD
Duration : 53 min 18 s
Bit rate : 1 800 kb/s
Width : 720 pixels
Height : 400 pixels
Display aspect ratio : 16:9
Frame rate : 25.000 FPS
Color space : YUV
Chroma subsampling : 4:2:0
Bit depth : 8 bits
Scan type : Progressive
Compression mode : Lossy
Bits/(Pixel*Frame) : 0.250
Stream size : 686 MiB (90%)
Writing library : XviD 73

Audio
ID : 1
Format : AC-3
Format/Info : Audio Coding 3
Codec ID : 2000
Duration : 53 min 18 s
Bit rate mode : Constant
Bit rate : 192 kb/s
Channel(s) : 2 channels
Channel positions : Front: L R
Sampling rate : 48.0 kHz
Frame rate : 31.250 FPS (1536 SPF)
Bit depth : 16 bits
Compression mode : Lossy
Stream size : 73.2 MiB (10%)
Alignment : Split accross interleaves
Interleave, duration : 40 ms (1.00 video frame)
Interleave, preload duratio : 500 ms
Service kind : Complete Main


Трекер:  [ 10-Июл-2018 05:42 ]

  

Скачать .torrent

Размер .torrent файла 15 KB


Размер: 763 MB
Хэш (hash) релиза: 58a431391ff10e99fc991ee52a9e9fb5da5b5e66
Подписка на обновления:

Торренты, похожие на Sпарта Серии: 1 из 8 скачать торрент

Форум Название Автор Размер S L Добавлен
Российские сериалы ·%· Sпарта / Серии: 1 из 8 (Егор Баранов) [2017, драма, детектив, HDTV 1080i] Galfimbul 22851779762.13 GB 0 0 1531190556

05:42

10-Июл-18

Российские сериалы ·%· Sпарта / Серии: 1 из 8 (Егор Баранов) [2017, драма, детектив, HDTVRip 720p] Galfimbul 14769724991.38 GB 0 0 1531190548

05:42

10-Июл-18

Российские сериалы ·*· Sпарта / Серии: 1-8 из 8 (Егор Баранов) [2016,драма детектив, SATRip-AVC] aleksan55 56061282515.22 GB 0 0 1531149553

18:19

9-Июл-18

Еще никто не оставлял запись к записи скачать торрент Sпарта Серии: 1 из 8 . Будь первым!

!Обратная связь