Watch Movie 1080HD | The Rain | Katherine Reis

Скачать через торрент Годзилла Godzilla бесплатно Аниме Все серии на русском torrent

Статистика раздачи
Размер:  2.91 GB   |    Зарегистрирован:  6 дней   |    .torrent скачан:  38 раз   |   
Раздают:  1  
   
загрузка...
 
Автор Сообщение

Galfimbul

avatar Galfimbul


Годзилла / Godzilla / GODZILLA
Продолжительность: 3 фильма по 90 мин.
Год выпуска: 2017
Страна: Япония
Тип: Movie
Жанр: приключения, фантастика
Режиссёр: Кобун Сидзуно, Хироюки Сэсита
Студия: Polygon Pictures
Описание: Последнее лето XX века изменило всё. Именно тогда люди узнали, что они не единственные хозяева на планете Земля — огромные монстры, впоследствии названные кайдзю, стали наполнять её.
Одним из таких монстров была Годзилла. После войны длинной в полвека люди окончательно проиграли кайдзю. Поражение от врага, в несколько раз превышающего человека как в размерах, так и в единицах, вынуждает человечество покинуть Землю.
Люди отправились на Тау Кита, планету, что находится на расстоянии в 11,9 световых лет от Земли. Однако, после 20-летнего путешествия на корабле «Арарат» оказалось, что среда Кита далека от прогнозов и не подходит для обитания живых существ.
Главный герой, Харуо Сакаки, на глазах которого Годзилла убила родителей, желает расправиться с кайдзю. Невозможность эмиграции и ухудшение условий жизни на корабле стали поводом для создания фракции «Возвращение Земли», во главе с Харуо Её члены желают вернуться на Землю. Но за время отсутствия людей Земля стала совсем другим миром с неизвестной экосистемой, которым правят кайдзю.
Качество: BDRip
Рип: Omar [Anime Land]
Тип релиза: без хардсаба, без линковки
Формат видео: MKV
Видео: MPEG4 (AVC), 10 bit, 1280x720, 23,976fps, 3968 Kbps
Аудио: JAP: AAC, 48.0 kHz, 6ch, 24 bit, 768 Kbps
Субтитры: ASS, отдельным файлом: Язык субтитров русский
#1 Перевод: SovetRomanticа
Переводчики: Хитрый Панса, tanat_fantasy, mizukio6, jikito, eggplantheroship, Редактор: Di Green
Годзилла: Планета чудовищ
Годзилла: Решающая схватка 18 мая 2018 г. ( netflix релиз 18.07.18 )
Годзилла: Пожиратель звёзд на ноябрь 2018 г.
* Чтобы смотреть с озвучкой, необходимо из папки Rus sound переписать файлы в папку, где находятся видеофайлы. Далее, следует запустить плеер и переключиться на mka-дорожку. Подробное описание здесь
* Чтобы смотреть 10-битное видео (10bit), необходимо, исходя из ваших предпочтений используемого проигрывателя, воспользоваться
этой инструкцией.
* Чтобы смотреть с субтитрами, необходимо из папки Rus subs переписать файлы в папку, где находятся видеофайлы. В большинстве плееров, одноимённые субтитры подключатся автоматически.
Общее
Уникальный идентификатор : 108840775556183184986521698245089448187 (0x51E1F88BAEEE355847B31DD2A3A850FB)
Полное имя : E:\раздачи\[Anime Land] Godzilla - Kaijuu Wakusei [BDRip 720p x264 QAAC]\[Anime Land] Godzilla - Kaijuu Wakusei [BDRip 720p x264 QAAC].mkv
Формат : Matroska
Версия формата : Version 4 / Version 2
Размер файла : 2,91 Гбайт
Продолжительность : 1 ч. 27 м.
Общий поток : 4739 Кбит/сек
Название фильма : [Anime Land] Godzilla - Kaijuu Wakusei (BDRip 720p Hi10P QAAC) RAW
Дата кодирования : UTC 2018-07-09 20:09:44
Программа кодирования : mkvmerge v24.0.0 ('Beyond The Pale') 64-bit
Библиотека кодирования : libebml v1.3.6 + libmatroska v1.4.9

Видео
Идентификатор : 1
Формат : AVC
Формат/Информация : Advanced Video Codec
Профиль формата : High [email protected]
Настройки формата : CABAC / 16 Ref Frames
Параметр CABAC формата : Да
Параметр RefFrames формата : 16 кадров
Идентификатор кодека : V_MPEG4/ISO/AVC
Продолжительность : 1 ч. 27 м.
Битрейт : 3968 Кбит/сек
Ширина : 1280 пикселей
Высота : 720 пикселей
Соотношение сторон : 16:9
Режим частоты кадров : Постоянный
Частота кадров : 23,976 (24000/1001) кадра/сек
Цветовое пространство : YUV
Субдискретизация насыщенности : 4:2:0
Битовая глубина : 10 бит
Тип развёртки : Прогрессивная
Бит/(Пиксели*Кадры) : 0.180
Размер потока : 2,44 Гбайт (84%)
Заголовок : H264 Hi10P 720p By Omar
Библиотека кодирования : x264 core 152 r2851kMod ba24899
Настройки программы : cabac=1 / ref=16 / deblock=1:-1:-1 / analyse=0x3:0x133 / me=umh / subme=10 / psy=1 / fade_compensate=0.00 / psy_rd=1.00:0.15 / mixed_ref=1 / me_range=24 / chroma_me=1 / trellis=2 / 8x8dct=1 / cqm=0 / deadzone=21,11 / fast_pskip=0 / chroma_qp_offset=-3 / threads=22 / lookahead_threads=5 / sliced_threads=0 / nr=0 / decimate=1 / interlaced=0 / bluray_compat=0 / constrained_intra=0 / bframes=16 / b_pyramid=2 / b_adapt=2 / b_bias=0 / direct=3 / weightb=1 / open_gop=0 / weightp=2 / keyint=250 / keyint_min=23 / scenecut=40 / intra_refresh=0 / rc_lookahead=60 / rc=crf / mbtree=1 / crf=16.0000 / qcomp=0.80 / qpmin=0 / qpmax=81 / qpstep=4 / ip_ratio=1.40 / aq=3:1.00
Язык : Japanese
Default : Да
Forced : Нет
Цветовой диапазон : Limited
Основные цвета : BT.709
Характеристики трансфера : BT.709
Коэффициенты матрицы : BT.709

Аудио
Идентификатор : 2
Формат : AAC
Формат/Информация : Advanced Audio Codec
Профиль формата : LC
Идентификатор кодека : A_AAC-2
Продолжительность : 1 ч. 27 м.
Битрейт : 768 Кбит/сек
Каналы : 6 каналов
Расположение каналов : Front: L C R, Side: L R, LFE
Частота : 48,0 КГц
Частота кадров : 46,875 кадров/сек (1024 SPF)
Метод сжатия : С потерями
Задержка видео : 20 мс.
Размер потока : 483 Мбайт (16%)
Заголовок : QAAC CBR 768 Kbps 5.1 By Omar
Язык : Japanese
Default : Да
Forced : Нет

Меню
00:00:00.000 : ja:1
00:00:13.013 : ja:2
00:00:16.016 : ja:3
00:03:34.881 : ja:4
00:05:03.303 : ja:5
00:07:40.335 : ja:6
00:10:44.644 : ja:7
00:12:53.439 : ja:8
00:15:58.124 : ja:9
00:18:45.499 : ja:10
00:21:16.984 : ja:11
00:22:07.368 : ja:12
00:25:11.218 : ja:13
00:28:05.309 : ja:14
00:30:18.734 : ja:15
00:35:54.569 : ja:16
00:38:27.889 : ja:17
00:42:49.859 : ja:18
00:45:09.790 : ja:19
00:49:32.761 : ja:20
00:51:07.273 : ja:21
00:54:01.405 : ja:22
00:57:10.761 : ja:23
01:01:36.192 : ja:24
01:08:34.694 : ja:25
01:15:38.325 : ja:26
01:22:42.457 : ja:27
01:26:57.212 : ja:28
File: E:\раздачи\[Anime Land] Godzilla - Kaijuu Wakusei [BDRip 720p x264 QAAC]\[Anime Land] Godzilla - Kaijuu Wakusei [BDRip 720p x264 QAAC].mkv
Duration: 01:27:52 (5272.3)
Track #1: video (H264 Hi10P 720p By Omar)
lang: jpn (2)
codc: V_MPEG4/ISO/AVC -> H264/AVC (22)
reso: 1280x720 -> 16:9
fram: 23.976 fps
rate: 3968 kbps (3968.47)
dura: 01:27:52 (5272.23)
size: 2.44 GB (2615332382)
Track #2: audio (QAAC CBR 768 Kbps 5.1 By Omar)
lang: jpn -> Japanese (2)
codc: A_AAC -> AAC (9)
chan: 6 -> 5.1 Surround
samp: 48000 Hz
rate: 769 kbps (768.54)
dura: 01:27:52 (5272.21)
size: 483.03 MB (506488639)
Sizes: (check sanity)
disk: 2.91 GB (3123051422)
trac: 2.91 GB (3121821021) [based on track size]
bitr: 2.91 GB (3121822078) [based on bitrate]
tdif: 1.17 MB (1230401) 0.03%
bdif: 1.17 MB (1229343) 0.03%


Трекер:  [ 09-Июл-2018 23:30 ]

  

Скачать .torrent

Размер .torrent файла 15 KB


Размер: 2.91 GB
Хэш (hash) релиза: c5ffd1f7cb8fa4a3d74fbf3e3633d305ebb1b24b
Подписка на обновления:

Торренты, похожие на Годзилла Godzilla скачать торрент

Форум Название Автор Размер S L Добавлен
Аниме | HD Rips ·%· Годзилла: Планета чудовищ / Godzilla: Kaijuu Wakusei / Godzilla [Movie] [без хардсаба] [1 из 3] [JAP+SUB] [2017, приключения, фантастика, BDRip] [1080p] Galfimbul 75967943537.08 GB 1 1 1531036870

11:01

8-Июл-18

Еще никто не оставлял запись к записи скачать торрент Годзилла Godzilla . Будь первым!

!Обратная связь