Polyamory: Married and Dating | 12 Valientes BluRay-Screeener | The Leavers by Lisa Ko

Скачать через торрент Острые предметы Sharp Objects Фильм бесплатно в хорошем качестве torrent

Скачивайте на UnionPeer.org фильмы через торрент без регистрации. Новинки кино в хорошем качестве через торрент. На UnionPeer.org можно скачать через торрент фильмы 2014 и 2015 годов. Самые новые фильмы.

Скачать торрент Острые предметы Sharp Objects бесплатно через .torrent фильм мультфильм сериал

Статистика раздачи
Размер:  1.36 GB   |    Зарегистрирован:  8 дней   |    .torrent скачан:  38 раз   |   
Раздают:  1  
   
загрузка...
 
Автор Сообщение

Galfimbul

avatar Galfimbul


Острые предметы / Sharp Objects

Год выпуска: 2018
Страна: США
Жанр: Триллер, драма, детектив
Продолжительность: ~ 01:00:00

Перевод: Профессиональный (двухголосый закадровый) Gears Media

Режиссёры: Жан-Марк Валле

В ролях: Эми Адамс, Патриша Кларксон, Крис Мессина, Мэтт Крэйвен, Генри Черни, Мигель Сандовал, Сидни Свини

Описание: Камилла Прикер, не особо удачливый репортер одной из не особо успешных газет Чикаго, мечтает о блестящей карьере. И вот девушке выпадает счастливый шанс, способный резко повысить ее журналистский статус, — Камиллу посылают корреспондентом в маленький городок, где жертвой маньяка стали несколько девочек. Камилла в этом городе родилась и выросла, но погружение в страшную реальность провинциальной жизни оборачивается для нее цепью кошмарных событий.

Ссылка на предыдущие и альтернативные раздачи: http://rutracker.org/forum/tracker.php?g=foreign_se...nm=Sharp+Objects

Сэмпл: http://multi-up.com/1203407

Качество: WEB-DL 720p
Формат: MKV
Видео: X264, 1280x720 at 23.976 fps, ~2000 kbps avg
Аудио1: Russian, AC3, 48 kHz, 2 ch, 384 kbps
Аудио2: English, EAC3, 48 kHz, 6 ch, 640 kbps
Субтитры: нет
Реклама: аудио (два раза, в начале и конце, по 12 сек.)
General
Format : Matroska
Format version : Version 4 / Version 2
File size : 1.36 GiB
Duration : 1 h 2 min
Overall bit rate : 3 106 kb/s
Encoded date : UTC 2018-07-09 18:41:00
Writing application : mkvmerge v24.0.0 ('Beyond The Pale') 64-bit
Writing library : libebml v1.3.6 + libmatroska v1.4.9

Video
ID : 1
Format : AVC
Format/Info : Advanced Video Codec
Format profile : [email protected]
Format settings : CABAC / 5 Ref Frames
Format settings, CABAC : Yes
Format settings, RefFrames : 5 frames
Codec ID : V_MPEG4/ISO/AVC
Duration : 1 h 2 min
Bit rate : 2 080 kb/s
Width : 1 280 pixels
Height : 720 pixels
Display aspect ratio : 16:9
Frame rate mode : Constant
Frame rate : 23.976 (24000/1001) FPS
Color space : YUV
Chroma subsampling : 4:2:0
Bit depth : 8 bits
Scan type : Progressive
Bits/(Pixel*Frame) : 0.094
Stream size : 931 MiB (67%)
Default : Yes
Forced : No
Color range : Limited
Color primaries : BT.709
Transfer characteristics : BT.709
Matrix coefficients : BT.709

Audio #1
ID : 2
Format : AC-3
Format/Info : Audio Coding 3
Codec ID : A_AC3
Duration : 1 h 2 min
Bit rate mode : Constant
Bit rate : 384 kb/s
Channel(s) : 2 channels
Channel positions : Front: L R
Sampling rate : 48.0 kHz
Frame rate : 31.250 FPS (1536 SPF)
Bit depth : 16 bits
Compression mode : Lossy
Stream size : 172 MiB (12%)
Title : Gears Media
Language : Russian
Service kind : Complete Main
Default : Yes
Forced : Yes

Audio #2
ID : 3
Format : E-AC-3
Format/Info : Enhanced Audio Coding 3
Codec ID : A_EAC3
Duration : 1 h 2 min
Bit rate mode : Constant
Bit rate : 640 kb/s
Channel(s) : 6 channels
Channel positions : Front: L C R, Side: L R, LFE
Sampling rate : 48.0 kHz
Frame rate : 187.500 FPS (256 SPF)
Compression mode : Lossy
Delay relative to video : 3 ms
Stream size : 287 MiB (21%)
Language : English
Service kind : Complete Main
Default : No
Forced : No
<div class="sp-wrap">
<div class="sp-head folded">Внимание! Раздача ведётся путём добавления новых серий</div>
<div class="sp-body">[b]Внимание! Раздача ведётся путём добавления новых серий; при каждом добавлении создаётся новый торрент. Чтобы начать докачку новой серии, пользователям необходимо сделать следующее:
(1) остановить скачивание,
(2) удалить старый торрент у себя из клиента (старые серии удалять не надо),
(3) скачать новый торрент и запустить его у себя в клиенте вместо старого, при этом указать клиенту путь в старую папку куда и должно происходить скачивание новых серий.

Eсли вы уже удалили старые серии, то предотвратить повторную закачку старых серий можно, отжав галочку в соответствующих местах при запуске нового торрента. По возможности, желательно не удалять старые серии как можно дольше чтобы релизёр не столько продолжал раздавать старые серии, а смог сконцентрироваться на новых.</div>
</div>

Трекер:  [ 09-Июл-2018 22:18 ]

  

Скачать .torrent

Размер .torrent файла 55 KB


Размер: 1.36 GB
Хэш (hash) релиза: f49a39412edde470c1c54691e268de4d065d3af3
Подписка на обновления:

Торренты, похожие на Острые предметы Sharp Objects скачать торрент

Форум Название Автор Размер S L Добавлен
Зарубежные сериалы ·%· Острые предметы / Sharp Objects / Сезон: 1 / Серии: 1 из 8 (Жан-Марк Валле) [2018, США, триллер, драма, детектив, WEB-DLRip] MVO (Jaskier) + Original Galfimbul 890802176850 MB 0 0 1531520292

01:18

14-Июл-18

Зарубежные сериалы ·%· Острые предметы / Sharp Objects / Сезон: 1 / Серии: 1 из 8 (Жан-Марк Валле) [2018, США, триллер, драма, детектив., WEB-DL 720p] MVO (Jaskier) + Original + Sub Eng Galfimbul 13379034161.25 GB 0 0 1531484299

15:18

13-Июл-18

Зарубежные сериалы ·%· Острые предметы / Sharp Objects / Сезон: 1 / Серии: 1 из 8 (Жан-Марк Валле) [2018, США, триллер, драма, криминал, детектив., WEB-DLRip] MVO (Jaskier) + Original Galfimbul 787130368751 MB 2 0 1531484286

15:18

13-Июл-18

Зарубежные сериалы ·%· Острые предметы / Sharp Objects / Сезон: 1 / Серии: 1 из 8 (Жан-Марк Валле) [2018, США, Триллер, драма, криминал, детектив, WEB-DLRip] MVO (Amedia) + Original Galfimbul 11640934401.08 GB 0 0 1531397887

15:18

12-Июл-18

Зарубежные сериалы ·%· Острые предметы / Sharp Objects / Сезон: 1 / Серии: 1 из 8 (Жан-Марк Валле) [2018, США, триллер, драма, детектив, WEB-DLRip] DVO (Gears Media) + Original Galfimbul 890802176850 MB 0 0 1531239489

19:18

10-Июл-18

Зарубежные сериалы ·%· Острые предметы / Sharp Objects / Сезон: 1 / Серии: 1 из 8 (Жан-Марк Валле) [2018, США, триллер, драма, детектив, WEB-DLRip] DVO (Gears Media) + Original Galfimbul 798241010761 MB 0 0 1531163897

22:18

9-Июл-18

Зарубежные сериалы ·%· Острые предметы / Sharp Objects / Сезон: 1 / Серии: 1 из 8 (Жан-Марк Валле) [2018, США, Триллер, драма, детектив, WEBRip] MVO (Amedia) + Original Galfimbul 797009920760 MB 0 0 1531147687

17:48

9-Июл-18

Еще никто не оставлял запись к записи скачать торрент Острые предметы Sharp Objects . Будь первым!

!Обратная связь