voir Game Night streaming gratuit | Twilight | Héctor Mercado

Скачать через торрент Острые предметы Sharp Objects Фильм бесплатно в хорошем качестве torrent

Скачивайте на UnionPeer.org фильмы через торрент без регистрации. Новинки кино в хорошем качестве через торрент. На UnionPeer.org можно скачать через торрент фильмы 2014 и 2015 годов. Самые новые фильмы.

Скачать торрент Острые предметы Sharp Objects бесплатно через .torrent фильм мультфильм сериал

Статистика раздачи
Размер:  761 MB   |    Зарегистрирован:  8 дней   |    .torrent скачан:  32 раза   |   
Раздают:  1  
   
загрузка...
 
Автор Сообщение

Galfimbul

avatar Galfimbul


Острые предметы / Sharp Objects

Год выпуска: 2018
Страна: США
Жанр: Триллер, драма, детектив
Продолжительность: ~ 01:00:00

Перевод: Профессиональный (двухголосый закадровый) Gears Media

Режиссёры: Жан-Марк Валле

В ролях: Эми Адамс, Патриша Кларксон, Крис Мессина, Мэтт Крэйвен, Генри Черни, Мигель Сандовал, Сидни Свини

Описание: Камилла Прикер, не особо удачливый репортер одной из не особо успешных газет Чикаго, мечтает о блестящей карьере. И вот девушке выпадает счастливый шанс, способный резко повысить ее журналистский статус, — Камиллу посылают корреспондентом в маленький городок, где жертвой маньяка стали несколько девочек. Камилла в этом городе родилась и выросла, но погружение в страшную реальность провинциальной жизни оборачивается для нее цепью кошмарных событий.

Ссылка на предыдущие и альтернативные раздачи: http://rutracker.org/forum/tracker.php?g=foreign_se...nm=Sharp+Objects

Сэмпл:http://multi-up.com/1203409

Качество: WEB-DLRip
Формат: AVI
Видео: XviD, 720x400 at 23.976 fps, ~1500 kbps avg
Аудио1: Russian, MP3, 48 kHz, 2 ch, 128 kbps
Аудио2: English, MP3, 48 kHz, 2 ch, 128 kbps
Субтитры: нет
Реклама: аудио (два раза, в начале и конце, по 12 сек.)
General
Format : AVI
Format/Info : Audio Video Interleave
File size : 761 MiB
Duration : 1 h 2 min
Overall bit rate : 1 700 kb/s
Writing application : Lavf57.29.101

Video
ID : 0
Format : xvid
Codec ID : xvid
Duration : 1 h 2 min
Bit rate : 1 424 kb/s
Width : 720 pixels
Height : 400 pixels
Display aspect ratio : 16:9
Frame rate : 23.976 (24000/1001) FPS
Scan type : Progressive
Bits/(Pixel*Frame) : 0.206
Stream size : 637 MiB (84%)

Audio #1
ID : 1
Format : MPEG Audio
Format version : Version 1
Format profile : Layer 3
Format settings : Joint stereo / MS Stereo
Codec ID : 55
Codec ID/Hint : MP3
Duration : 1 h 2 min
Bit rate mode : Constant
Bit rate : 128 kb/s
Channel(s) : 2 channels
Sampling rate : 48.0 kHz
Compression mode : Lossy
Stream size : 57.3 MiB (8%)
Alignment : Aligned on interleaves
Interleave, duration : 24 ms (0.58 video frame)
Interleave, preload duration : 24 ms
Title : Gears Media
Writing library : LAME3.99.5

Audio #2
ID : 2
Format : MPEG Audio
Format version : Version 1
Format profile : Layer 3
Format settings : Joint stereo
Codec ID : 55
Codec ID/Hint : MP3
Duration : 1 h 2 min
Bit rate mode : Constant
Bit rate : 128 kb/s
Channel(s) : 2 channels
Sampling rate : 48.0 kHz
Compression mode : Lossy
Stream size : 57.3 MiB (8%)
Alignment : Aligned on interleaves
Interleave, duration : 24 ms (0.58 video frame)
Interleave, preload duration : 24 ms
Writing library : LAMEЄ
<div class="sp-wrap">
<div class="sp-head folded">Внимание! Раздача ведётся путём добавления новых серий</div>
<div class="sp-body">[b]Внимание! Раздача ведётся путём добавления новых серий; при каждом добавлении создаётся новый торрент. Чтобы начать докачку новой серии, пользователям необходимо сделать следующее:
(1) остановить скачивание,
(2) удалить старый торрент у себя из клиента (старые серии удалять не надо),
(3) скачать новый торрент и запустить его у себя в клиенте вместо старого, при этом указать клиенту путь в старую папку куда и должно происходить скачивание новых серий.

Eсли вы уже удалили старые серии, то предотвратить повторную закачку старых серий можно, отжав галочку в соответствующих местах при запуске нового торрента. По возможности, желательно не удалять старые серии как можно дольше чтобы релизёр не столько продолжал раздавать старые серии, а смог сконцентрироваться на новых.</div>
</div>

Трекер:  [ 09-Июл-2018 22:18 ]

  

Скачать .torrent

Размер .torrent файла 30 KB


Размер: 761 MB
Хэш (hash) релиза: 60dea4d7ce4b41dc2b8c524fbd8e3bbd83873b94
Подписка на обновления:

Торренты, похожие на Острые предметы Sharp Objects скачать торрент

Форум Название Автор Размер S L Добавлен
Зарубежные сериалы ·%· Острые предметы / Sharp Objects / Сезон: 1 / Серии: 1 из 8 (Жан-Марк Валле) [2018, США, триллер, драма, детектив, WEB-DLRip] MVO (Jaskier) + Original Galfimbul 890802176850 MB 0 0 1531520292

01:18

14-Июл-18

Зарубежные сериалы ·%· Острые предметы / Sharp Objects / Сезон: 1 / Серии: 1 из 8 (Жан-Марк Валле) [2018, США, триллер, драма, детектив., WEB-DL 720p] MVO (Jaskier) + Original + Sub Eng Galfimbul 13379034161.25 GB 0 0 1531484299

15:18

13-Июл-18

Зарубежные сериалы ·%· Острые предметы / Sharp Objects / Сезон: 1 / Серии: 1 из 8 (Жан-Марк Валле) [2018, США, триллер, драма, криминал, детектив., WEB-DLRip] MVO (Jaskier) + Original Galfimbul 787130368751 MB 2 0 1531484286

15:18

13-Июл-18

Зарубежные сериалы ·%· Острые предметы / Sharp Objects / Сезон: 1 / Серии: 1 из 8 (Жан-Марк Валле) [2018, США, Триллер, драма, криминал, детектив, WEB-DLRip] MVO (Amedia) + Original Galfimbul 11640934401.08 GB 0 0 1531397887

15:18

12-Июл-18

Зарубежные сериалы ·%· Острые предметы / Sharp Objects / Сезон: 1 / Серии: 1 из 8 (Жан-Марк Валле) [2018, США, триллер, драма, детектив, WEB-DLRip] DVO (Gears Media) + Original Galfimbul 890802176850 MB 0 0 1531239489

19:18

10-Июл-18

Зарубежные сериалы ·%· Острые предметы / Sharp Objects / Сезон: 1 / Серии: 1 из 8 (Жан-Марк Валле) [2018, США, триллер, драма, детектив, WEB-DL 720p] DVO (Gears Media) + Original Galfimbul 14580618381.36 GB 0 0 1531163911

22:18

9-Июл-18

Зарубежные сериалы ·%· Острые предметы / Sharp Objects / Сезон: 1 / Серии: 1 из 8 (Жан-Марк Валле) [2018, США, Триллер, драма, детектив, WEBRip] MVO (Amedia) + Original Galfimbul 797009920760 MB 0 0 1531147687

17:48

9-Июл-18

Еще никто не оставлял запись к записи скачать торрент Острые предметы Sharp Objects . Будь первым!

!Обратная связь