Градусы | Petit Paysan Stream Complet | JRiver Media Center 24.0.41 Multilingual

Скачать через торрент Элементарно Elementary Фильм бесплатно в хорошем качестве torrent

Скачивайте на UnionPeer.org фильмы через торрент без регистрации. Новинки кино в хорошем качестве через торрент. На UnionPeer.org можно скачать через торрент фильмы 2014 и 2015 годов. Самые новые фильмы.

Скачать торрент Элементарно Elementary бесплатно через .torrent фильм мультфильм сериал

Статистика раздачи
Размер:  31.52 GB   |    Зарегистрирован:  8 дней   |    .torrent скачан:  35 раз   |   
Раздают:  1  
   
загрузка...
 
Автор Сообщение

Galfimbul

avatar Galfimbul


Элементарно / Elementary GostFilm

Год выпуска: 2018
Страна: США, CBS Television Studios, Hill of Beans Product
Жанр: Драма, криминал, детектив
Продолжительность: 44

Перевод: Профессиональный (многоголосый закадровый) GostFilm

Режиссёр: Джон Полсон, Эндрю Бернштейн, Сет Манн

В ролях: Джонни Ли Миллер, Люси Лью, Эйдан Куинн, Джон Майкл Хилл, Натали Дормер, Ато Эссонда, Линда Эмонд, Майкл Ден Деккер, Винни Джонс, Эрик Дженсен

Описание: Никаких каминов, скрипок и лондонских туманов. Америка, наше время. Холмс - не только гениальный сыщик, но и бывший наркоман. Ватсон - не просто женщина-доктор с пикантной внешностью Люси Лиу, но и неплохой аналитик. Вместе они могут горы свернуть. Но сейчас успешный детективный дуэт на грани распада. Смогут ли Холмс и Ватсон друг без друга?

Доп. информация: Сериал переведен и озвучен Творческим объединением GostFilm

Сэмпл: http://www.sendspace.com/

Качество: WEBRip
Формат: MP4
Видео: MPEG-4 AVC, ~ 8600 Кбит/с, 1920x1080
Аудио: Русский (AC3, 2 ch, 192 Кбит/с)
Субтитры: нет

Реклама:
Присутствует аудио-реклама.
General
Unique ID : 251895815402288426567280178480018275923 (0xBD815E8F5AA952F105A6CC653BEEBE53)
Complete name : A:\Elementary.S06.1080p.GostFilm\Elementary.S06E10.1080p.GostFilm.mkv
Format : Matroska
Format version : Version 4 / Version 2
File size : 3.79 GiB
Duration : 42mn 55s
Overall bit rate : 12.6 Mbps
Encoded date : UTC 2018-07-03 18:46:12
Writing application : mkvmerge v22.0.0 ('At The End Of The World') 64-bit
Writing library : libebml v1.3.5 + libmatroska v1.4.8
DURATION : 00:42:55.256000000
NUMBER_OF_FRAMES : 73938
NUMBER_OF_BYTES : 61806132
_STATISTICS_WRITING_APP : mkvmerge v22.0.0 ('At The End Of The World') 64-bit
_STATISTICS_WRITING_DATE_UT : 2018-07-03 18:46:12
_STATISTICS_TAGS : BPS DURATION NUMBER_OF_FRAMES NUMBER_OF_BYTES

Video
ID : 1
Format : AVC
Format/Info : Advanced Video Codec
Format profile : [email protected]
Format settings, CABAC : Yes
Format settings, ReFrames : 4 frames
Codec ID : V_MPEG4/ISO/AVC
Duration : 42mn 55s
Bit rate : 11.5 Mbps
Width : 1 920 pixels
Height : 1 080 pixels
Display aspect ratio : 16:9
Frame rate mode : Constant
Frame rate : 24.000 fps
Color space : YUV
Chroma subsampling : 4:2:0
Bit depth : 8 bits
Scan type : Progressive
Bits/(Pixel*Frame) : 0.232
Stream size : 3.46 GiB (91%)
Default : Yes
Forced : No
Color primaries : BT.709
Transfer characteristics : BT.709
Matrix coefficients : BT.709
Color range : Limited

Audio #1
ID : 2
Format : AC-3
Format/Info : Audio Coding 3
Mode extension : CM (complete main)
Format settings, Endianness : Big
Codec ID : A_AC3
Duration : 42mn 55s
Bit rate mode : Constant
Bit rate : 192 Kbps
Channel(s) : 2 channels
Channel positions : Front: L R
Sampling rate : 44.1 KHz
Bit depth : 16 bits
Compression mode : Lossy
Stream size : 58.9 MiB (2%)
Title : GostFilm
Default : Yes
Forced : Yes

Audio #2
ID : 3
Format : E-AC-3
Format/Info : Audio Coding 3
Format settings, Endianness : Big
Codec ID : A_EAC3
Duration : 42mn 55s
Bit rate mode : Constant
Bit rate : 640 Kbps
Channel(s) : 6 channels
Channel positions : Front: L C R, Side: L R, LFE
Sampling rate : 48.0 KHz
Compression mode : Lossy
Stream size : 196 MiB (5%)
Language : English
Default : No
Forced : No

Text
ID : 4
Format : UTF-8
Codec ID : S_TEXT/UTF8
Codec ID/Info : UTF-8 Plain Text
Title : SDH
Language : English
Default : No
Forced : No
Предыдущие и альтернативные раздачи

Трекер:  [ 09-Июл-2018 22:18 ]

  

Скачать .torrent

Размер .torrent файла 80 KB


Размер: 31.52 GB
Хэш (hash) релиза: e0a3d679528e9fc31d81678003aba72689243b9e
Подписка на обновления:

Еще никто не оставлял запись к записи скачать торрент Элементарно Elementary . Будь первым!

!Обратная связь