I villeggianti Trailer italiano In | William Troughton | Answer Me 1994

Скачать через торрент музыку Эдди Eddie бесплатно без регистрации torrent

Статистика раздачи
Размер:  371 MB   |    Зарегистрирован:  2 месяца 15 дней   |    .torrent скачан:  19 раз   |   
Раздают:  1  
   
загрузка...
 
Автор Сообщение

Galfimbul

avatar Galfimbul


Эдди / Eddie

Название альбома: Woopie - Eddie The Soundtrack
Жанр: Soundtrack
Год выпуска диска: 1996
Год выпуска фильма: 1996
Страна-производитель диска: EU
Издатель (лейбл): 4th & Broadway / Hollywood Records / Island Record
Номер по каталогу: 524243-2
Аудиокодек: FLAC (*.flac)
Тип рипа: tracks+.cue
Битрейт аудио: lossless
Продолжительность: 0:57:42.
Источник: собственный рип
Наличие сканов в содержимом раздачи: да
Треклист:
01. Coolio / (It's) All the Way Live (Now) [0:04:21.00]
02. 40 Thevz / Ain't No Love [0:04:09.50]
03. Ill Al Skratch / Where You At [0:04:41.38]
04. House Of Pain / Punch Drunk [0:03:32.25]
05. N.B. Hey / Da Dribbol [0:03:49.25]
06. Luke / Scarred [0:03:32.00]
07. Jodeci / After Last Night [0:04:06.12]
08. Nneka / Say Again [0:04:26.00]
09. Dru Hill / Tell Me [0:04:14.50]
10. Myron / Sistas [0:04:01.63]
11. J'Son / Say That You're Ready [0:04:03.50]
12. Darcus / Rain Falls [0:04:08.50]
13. Stanley Clarke / Skills [0:04:39.00]
14. Mighty Reel / Step Up To The Line (feat. Kimberly Blake) [0:03:56.12]
Exact Audio Copy V1.0 beta 3 from 29. August 2011

Отчёт EAC об извлечении, выполненном 12. апреля 2018, 23:00

VA / Eddie The Soundtrack

Дисковод: ASUS DRW-1814BLT Adapter: 5 ID: 0

Режим чтения : ДостоверностьИспользование точного потока : ДаОтключение кэша аудио : ДаИспользование указателей C2 : Нет

Коррекция смещения при чтении : 6Способность читать области Lead-in и Lead-out : НетЗаполнение пропущенных сэмплов тишиной : ДаУдаление блоков с тишиной в начале и конце : НетПри вычислениях CRC использовались нулевые сэмплы : ДаИнтерфейс : Встроенный Win32-интерфейс для Win NT/2000Обработка зазоров : Добавлено к предыдущему треку

Выходной формат : Пользовательский кодировщикВыбранный битрейт : 128 kBit/sКачество : ВысокийДобавление ID3-тега : НетУтилита сжатия : C:\Program Files\Exact Audio Copy\Flac\flac.exeДополнительные параметры : -V -8 -T "Genre=%genre%" -T "Artist=%artist%" -T "Title=%title%" -T "Album=%albumtitle%" -T "Date=%year%" -T "Tracknumber=%tracknr%" -T "Comment=EAC1.0b2 FLAC -8" %source%

TOC извлечённого CD

Трек | Старт | Длительность | Начальный сектор | Конечный сектор --------------------------------------------------------------------- 1 | 0:00.32 | 4:21.00 | 32 | 19606 2 | 4:21.32 | 4:09.50 | 19607 | 38331 3 | 8:31.07 | 4:41.38 | 38332 | 59444 4 | 13:12.45 | 3:32.25 | 59445 | 75369 5 | 16:44.70 | 3:49.25 | 75370 | 92569 6 | 20:34.20 | 3:32.00 | 92570 | 108469 7 | 24:06.20 | 4:06.12 | 108470 | 126931 8 | 28:12.32 | 4:26.00 | 126932 | 146881 9 | 32:38.32 | 4:14.50 | 146882 | 165981 10 | 36:53.07 | 4:01.63 | 165982 | 184119 11 | 40:54.70 | 4:03.50 | 184120 | 202394 12 | 44:58.45 | 4:08.50 | 202395 | 221044 13 | 49:07.20 | 4:39.00 | 221045 | 241969 14 | 53:46.20 | 3:56.12 | 241970 | 259681

Трек 1

Имя файла R:\Раздача 77\Whoopi - Eddie The Sountrack - 1996\01 (It's) All the Way Live (Now) .wav

Длина предзазора 0:00:02.32

Пиковый уровень 98.8 % Скорость извлечения 5.1 X Качество трека 100.0 % CRC теста A0B04CEF CRC копии A0B04CEF Точное извлечение (достоверность 2) [BACD12A0] (AR v2) Копирование... OK

Трек 2

Имя файла R:\Раздача 77\Whoopi - Eddie The Sountrack - 1996\02 Ain't No Love .wav

Длина предзазора 0:00:01.00

Пиковый уровень 98.8 % Скорость извлечения 4.3 X Качество трека 99.9 % CRC теста ABA35FAB CRC копии ABA35FAB Точное извлечение (достоверность 2) [F32FFD34] (AR v2) Копирование... OK

Трек 3

Имя файла R:\Раздача 77\Whoopi - Eddie The Sountrack - 1996\03 Where You At .wav

Длина предзазора 0:00:01.00

Пиковый уровень 98.8 % Скорость извлечения 4.8 X Качество трека 99.9 % CRC теста BDBC1262 CRC копии BDBC1262 Точное извлечение (достоверность 2) [5E750C97] (AR v2) Копирование... OK

Трек 4

Имя файла R:\Раздача 77\Whoopi - Eddie The Sountrack - 1996\04 Punch Drunk .wav

Пиковый уровень 98.8 % Скорость извлечения 6.5 X Качество трека 100.0 % CRC теста C40C8007 CRC копии C40C8007 Точное извлечение (достоверность 2) [B4E4FA51] (AR v2) Копирование... OK

Трек 5

Имя файла R:\Раздача 77\Whoopi - Eddie The Sountrack - 1996\05 Da Dribbol .wav

Пиковый уровень 96.6 % Скорость извлечения 6.9 X Качество трека 100.0 % CRC теста 30E7DC5B CRC копии 30E7DC5B Точное извлечение (достоверность 2) [E37E05EB] (AR v2) Копирование... OK

Трек 6

Имя файла R:\Раздача 77\Whoopi - Eddie The Sountrack - 1996\06 Scarred .wav

Пиковый уровень 98.8 % Скорость извлечения 7.1 X Качество трека 100.0 % CRC теста 835F0F0B CRC копии 835F0F0B Точное извлечение (достоверность 2) [6CE0E93B] (AR v2) Копирование... OK

Трек 7

Имя файла R:\Раздача 77\Whoopi - Eddie The Sountrack - 1996\07 After Last Night .wav

Пиковый уровень 98.8 % Скорость извлечения 7.6 X Качество трека 100.0 % CRC теста 3AE7568D CRC копии 3AE7568D Точное извлечение (достоверность 2) [1A4851F6] (AR v2) Копирование... OK

Трек 8

Имя файла R:\Раздача 77\Whoopi - Eddie The Sountrack - 1996\08 Say Again .wav

Пиковый уровень 98.8 % Скорость извлечения 8.0 X Качество трека 100.0 % CRC теста CC9AD4D8 CRC копии CC9AD4D8 Точное извлечение (достоверность 2) [28D87DD7] (AR v2) Копирование... OK

Трек 9

Имя файла R:\Раздача 77\Whoopi - Eddie The Sountrack - 1996\09 Tell Me .wav

Пиковый уровень 98.8 % Скорость извлечения 8.3 X Качество трека 100.0 % CRC теста 92B96B02 CRC копии 92B96B02 Точное извлечение (достоверность 2) [4A27C65E] (AR v2) Копирование... OK

Трек 10

Имя файла R:\Раздача 77\Whoopi - Eddie The Sountrack - 1996\10 Sistas .wav

Длина предзазора 0:00:01.00

Пиковый уровень 98.8 % Скорость извлечения 8.5 X Качество трека 100.0 % CRC теста 522D835D CRC копии 522D835D Точное извлечение (достоверность 2) [EAA2849B] (AR v2) Копирование... OK

Трек 11

Имя файла R:\Раздача 77\Whoopi - Eddie The Sountrack - 1996\11 Say That You're Ready .wav

Пиковый уровень 98.8 % Скорость извлечения 6.7 X Качество трека 99.9 % CRC теста 0F88EA2B CRC копии 0F88EA2B Точное извлечение (достоверность 2) [5B0B7208] (AR v2) Копирование... OK

Трек 12

Имя файла R:\Раздача 77\Whoopi - Eddie The Sountrack - 1996\12 Rain Falls .wav

Длина предзазора 0:00:01.00

Пиковый уровень 98.8 % Скорость извлечения 7.0 X Качество трека 99.9 % CRC теста 3B784EB1 CRC копии 3B784EB1 Точное извлечение (достоверность 2) [04D327E2] (AR v2) Копирование... OK

Трек 13

Имя файла R:\Раздача 77\Whoopi - Eddie The Sountrack - 1996\13 Skills .wav

Длина предзазора 0:00:01.00

Пиковый уровень 98.8 % Скорость извлечения 9.7 X Качество трека 100.0 % CRC теста 9A8747E3 CRC копии 9A8747E3 Точное извлечение (достоверность 2) [8237CAAD] (AR v2) Копирование... OK

Трек 14

Имя файла R:\Раздача 77\Whoopi - Eddie The Sountrack - 1996\14 Step Up To The Line (feat. Kimberly Blake) .wav

Пиковый уровень 98.8 % Скорость извлечения 9.6 X Качество трека 100.0 % CRC теста 075C29E6 CRC копии 075C29E6 Точное извлечение (достоверность 2) [75DC6DCD] (AR v2) Копирование... OK

Все треки извлечены точно

Ошибок не произошло

Конец отчёта

==== Контрольная сумма отчёта DA6EC8AF48EB77E0DAE4CB21602F8549F20725651FD1C40E2AC2C97BA82EE9A7 ====
REM GENRE SoundtrackREM DATE 1996REM DISCID BD0D860EREM COMMENT "ExactAudioCopy v1.0b3"CATALOG 0000000000000PERFORMER "VA"TITLE "Eddie The Soundtrack"FILE "01 (It's) All the Way Live (Now) .wav" WAVE TRACK 01 AUDIO TITLE "(It's) All the Way Live (Now)" PERFORMER "Coolio" PREGAP 00:00:32 INDEX 01 00:00:00 TRACK 02 AUDIO TITLE "Ain't No Love" PERFORMER "40 Thevz" INDEX 00 04:20:00FILE "02 Ain't No Love .wav" WAVE INDEX 01 00:00:00 TRACK 03 AUDIO TITLE "Where You At" PERFORMER "Ill Al Skratch" INDEX 00 04:08:50FILE "03 Where You At .wav" WAVE INDEX 01 00:00:00FILE "04 Punch Drunk .wav" WAVE TRACK 04 AUDIO TITLE "Punch Drunk" PERFORMER "House Of Pain" INDEX 01 00:00:00FILE "05 Da Dribbol .wav" WAVE TRACK 05 AUDIO TITLE "Da Dribbol" PERFORMER "N.B. Hey" INDEX 01 00:00:00FILE "06 Scarred .wav" WAVE TRACK 06 AUDIO TITLE "Scarred" PERFORMER "Luke" INDEX 01 00:00:00FILE "07 After Last Night .wav" WAVE TRACK 07 AUDIO TITLE "After Last Night" PERFORMER "Jodeci" INDEX 01 00:00:00FILE "08 Say Again .wav" WAVE TRACK 08 AUDIO TITLE "Say Again" PERFORMER "Nneka" INDEX 01 00:00:00FILE "09 Tell Me .wav" WAVE TRACK 09 AUDIO TITLE "Tell Me" PERFORMER "Dru Hill" INDEX 01 00:00:00 TRACK 10 AUDIO TITLE "Sistas" PERFORMER "Myron" INDEX 00 04:13:50FILE "10 Sistas .wav" WAVE INDEX 01 00:00:00FILE "11 Say That You're Ready .wav" WAVE TRACK 11 AUDIO TITLE "Say That You're Ready" PERFORMER "J'Son" INDEX 01 00:00:00 TRACK 12 AUDIO TITLE "Rain Falls" PERFORMER "Darcus" INDEX 00 04:02:50FILE "12 Rain Falls .wav" WAVE INDEX 01 00:00:00 TRACK 13 AUDIO TITLE "Skills" PERFORMER "Stanley Clarke" INDEX 00 04:07:50FILE "13 Skills .wav" WAVE INDEX 01 00:00:00FILE "14 Step Up To The Line (feat. Kimberly Blake) .wav" WAVE TRACK 14 AUDIO TITLE "Step Up To The Line (feat. Kimberly Blake)" PERFORMER "Mighty Reel" INDEX 01 00:00:00


Трекер:  [ 09-Июл-2018 18:36 ]

  

Скачать .torrent

Размер .torrent файла 16 KB


Размер: 371 MB
Хэш (hash) релиза: 6c1a3c6806554fa0bcde8e094a67b1e53bdf559f

Еще никто не оставлял запись к записи скачать торрент Эдди Eddie . Будь первым!

!Обратная связь