Portugal | SONY Vegas PRO v11.0 Build | Young Liars

Скачать через торрент Фламинго Серии: 1-4 из 4 Фильм бесплатно в хорошем качестве torrent

Скачивайте на UnionPeer.org фильмы через торрент без регистрации. Новинки кино в хорошем качестве через торрент. На UnionPeer.org можно скачать через торрент фильмы 2014 и 2015 годов. Самые новые фильмы.

Скачать торрент Фламинго Серии: 1-4 из 4 бесплатно через .torrent фильм мультфильм сериал

Статистика раздачи
Размер:  5.35 GB   |    Зарегистрирован:  4 месяца 5 дней   |    .torrent скачан:  57 раз   |   
Раздают:  1  
   
загрузка...
 
Автор Сообщение

Galfimbul

avatar Galfimbul


Фламинго

Год выпуска: 2018
Производство: ООО "Медиа-Арена"
Жанр: мелодрама
Продолжительность: ~00:43:00 серия
Субтитры: нет

Режиссёр: Александр Ефремов

В ролях: Александра Булычёва, Дмитрий Муляр, Максим Радугин, Руслан Чернецкий, Галина Кухальская, Андрей Карако, Ольга Бурлакова, Даша Отрошко, Сергей Ходьков, Владимир Мищанчук, Михаил Есьман

Описание:
Неожиданная травма вынудила Полю уйти из бальных танцев. Отсутствие образования не позволило найти приличную работу. Пришлось устроиться уборщицей в местном доме культуры. Единственной отдушиной становится стихийно возникший кружок. Здесь все желающие могут научиться танцевать. Происходящие ежедневно занятия вызывают недовольство руководителя провинциального театра. Обозленный Артур жалуется директору ДК. Кира разрешит остаться при условии победы коллектива в Национальном конкурсе. Подавая заявление на участие, руководительница сталкивается с бывшим партнером. Пару связывали непростые взаимоотношения. Антон уговорил влюбленную девушку сделать аборт, обещая поддержку. Узнав о неспособности партнерши продолжать выступления, парень быстро нашел замену. Возраст заставил оставить карьеру танцора и стать тренером. Теперь Полине предстоит соперничать с неверным возлюбленным.

Реклама: Нет.

Кинопоиск

Sample

Качество: HDTVRip 720p - Nikolspup
Формат: MKV
Видео кодек: H.264
Аудио кодек: AC3
Видео: MPEG4 AVC Video, H264, 16:9, 1280x720, 25 fps, ~4000 kbps, 0.174 bit/pixel
Аудио: AC3 Dolby Digital, 48 kHz, 2/0 (L,R) ch, 192 kbp
General
Unique ID : 184853523911777800120712896210551766529 (0x8B117E634D2A1BF6AA9E753FBB88FE01)
Complete name : D:\Flamingo.2018.HDTVRip.(720p).Nikolspup\Flamingo.(01.seriya.iz.02).2018.HDTVRip.(720p).Nikolspup.mkv
Format : Matroska
Format version : Version 4 / Version 2
File size : 2.50 GiB
Duration : 1 h 25 min
Overall bit rate : 4 194 kb/s
Encoded date : UTC 2018-07-08 06:50:57
Writing application : mkvmerge v7.8.0 ('River Man') 32bit built on Mar 27 2015 16:18:02
Writing library : libebml v1.3.1 + libmatroska v1.4.2

Video
ID : 1
Format : AVC
Format/Info : Advanced Video Codec
Format profile : High@L4.1
Format settings : CABAC / 9 Ref Frames
Format settings, CABAC : Yes
Format settings, ReFrames : 9 frames
Codec ID : V_MPEG4/ISO/AVC
Duration : 1 h 25 min
Bit rate : 4 000 kb/s
Width : 1 280 pixels
Height : 720 pixels
Display aspect ratio : 16:9
Frame rate mode : Constant
Frame rate : 25.000 FPS
Color space : YUV
Chroma subsampling : 4:2:0
Bit depth : 8 bits
Scan type : Progressive
Bits/(Pixel*Frame) : 0.174
Stream size : 2.39 GiB (95%)
Writing library : x264 core 146 r2538 121396c
Encoding settings : cabac=1 / ref=9 / deblock=1:-2:-1 / analyse=0x3:0x133 / me=umh / subme=9 / psy=1 / psy_rd=1.00:0.20 / mixed_ref=1 / me_range=32 / chroma_me=1 / trellis=2 / 8x8dct=1 / cqm=0 / deadzone=21,11 / fast_pskip=1 / chroma_qp_offset=-3 / threads=16 / lookahead_threads=8 / sliced_threads=0 / nr=0 / decimate=1 / interlaced=0 / bluray_compat=0 / constrained_intra=0 / bframes=11 / b_pyramid=2 / b_adapt=2 / b_bias=0 / direct=1 / weightb=1 / open_gop=0 / weightp=2 / keyint=250 / keyint_min=25 / scenecut=40 / intra_refresh=0 / rc=2pass / mbtree=0 / bitrate=4000 / ratetol=1.0 / qcomp=0.60 / qpmin=0 / qpmax=69 / qpstep=4 / cplxblur=20.0 / qblur=0.5 / ip_ratio=1.40 / pb_ratio=1.30 / aq=3:1.00
Default : No
Forced : No
Color range : Limited
Color primaries : BT.709
Transfer characteristics : BT.709
Matrix coefficients : BT.709

Audio
ID : 2
Format : AC-3
Format/Info : Audio Coding 3
Codec ID : A_AC3
Duration : 1 h 25 min
Bit rate mode : Constant
Bit rate : 192 kb/s
Channel(s) : 2 channels
Channel positions : Front: L R
Sampling rate : 48.0 kHz
Frame rate : 31.250 FPS (1536 SPF)
Bit depth : 16 bits
Compression mode : Lossy
Stream size : 117 MiB (5%)
Language : Russian
Service kind : Complete Main
Default : Yes
Forced : Yes


Трекер:  [ 09-Июл-2018 07:42 ]

  

Скачать .torrent

Размер .torrent файла 27 KB


Размер: 5.35 GB
Хэш (hash) релиза: c93a18fc4200b40f6dd8623610657446829b70d0
Подписка на обновления:

Торренты, похожие на Фламинго Серии: 1-4 из 4 скачать торрент

Форум Название Автор Размер S L Добавлен
Российские сериалы ·%· Фламинго / Серии: 1-4 из 4 (Александр Ефремов) [2018, мелодрама, HDTVRip] Galfimbul 29202513922.72 GB 0 0 1531111334

07:42

9-Июл-18

Еще никто не оставлял запись к записи скачать торрент Фламинго Серии: 1-4 из 4 . Будь первым!

!Обратная связь