Just Getting Started (2017) | Home Fires | Saxyhotwamen

Скачать через торрент Фламинго Серии: 1-4 из 4 Фильм бесплатно в хорошем качестве torrent

Скачивайте на UnionPeer.org фильмы через торрент без регистрации. Новинки кино в хорошем качестве через торрент. На UnionPeer.org можно скачать через торрент фильмы 2014 и 2015 годов. Самые новые фильмы.

Скачать торрент Фламинго Серии: 1-4 из 4 бесплатно через .torrent фильм мультфильм сериал

Статистика раздачи
Размер:  2.72 GB   |    Зарегистрирован:  10 дней   |    .torrent скачан:  47 раз   |   
Раздают:  1  
   
загрузка...
 
Автор Сообщение

Galfimbul

avatar Galfimbul


Фламинго

Год выпуска: 2018
Производство: ООО "Медиа-Арена"
Жанр: мелодрама
Продолжительность: ~00:43:00 серия
Субтитры: нет

Режиссёр: Александр Ефремов

В ролях: Александра Булычёва, Дмитрий Муляр, Максим Радугин, Руслан Чернецкий, Галина Кухальская, Андрей Карако, Ольга Бурлакова, Даша Отрошко, Сергей Ходьков, Владимир Мищанчук, Михаил Есьман

Описание:
Неожиданная травма вынудила Полю уйти из бальных танцев. Отсутствие образования не позволило найти приличную работу. Пришлось устроиться уборщицей в местном доме культуры. Единственной отдушиной становится стихийно возникший кружок. Здесь все желающие могут научиться танцевать. Происходящие ежедневно занятия вызывают недовольство руководителя провинциального театра. Обозленный Артур жалуется директору ДК. Кира разрешит остаться при условии победы коллектива в Национальном конкурсе. Подавая заявление на участие, руководительница сталкивается с бывшим партнером. Пару связывали непростые взаимоотношения. Антон уговорил влюбленную девушку сделать аборт, обещая поддержку. Узнав о неспособности партнерши продолжать выступления, парень быстро нашел замену. Возраст заставил оставить карьеру танцора и стать тренером. Теперь Полине предстоит соперничать с неверным возлюбленным.

Реклама: Нет.

Кинопоиск

Sample

Качество: HDTVRip
Формат: AVI
Видео кодек: XviD
Аудио кодек: AC3
Видео: 720x400 (1.80:1), 25 fps, XviD build 73 ~2000 kbps avg, 0.289 bit/pixel
Аудио: 48.0 kHz, AC3 Dolby Digital, 2/0 (L,R) ch, ~ 192 kbps
General
Complete name : D:\Flamingo.2018\Flamingo.(01.seriya.iz.02).2018.HDTVRip.avi
Format : AVI
Format/Info : Audio Video Interleave
File size : 1.36 GiB
Duration : 1 h 25 min
Overall bit rate : 2 280 kb/s
Writing application : VirtualDubMod 1.5.10.3 | www.virtualdub-fr.org || (build 2550/release)
Writing library : VirtualDubMod build 2550/release

Video
ID : 0
Format : MPEG-4 Visual
Format profile : Advanced [email protected]
Format settings : BVOP1
Format settings, BVOP : 1
Format settings, QPel : No
Format settings, GMC : No warppoints
Format settings, Matrix : Default (MPEG)
Codec ID : XVID
Codec ID/Hint : XviD
Duration : 1 h 25 min
Bit rate : 2 078 kb/s
Width : 720 pixels
Height : 400 pixels
Display aspect ratio : 16:9
Frame rate : 25.000 FPS
Color space : YUV
Chroma subsampling : 4:2:0
Bit depth : 8 bits
Scan type : Progressive
Compression mode : Lossy
Bits/(Pixel*Frame) : 0.289
Stream size : 1.24 GiB (91%)
Writing library : XviD 73

Audio
ID : 1
Format : AC-3
Format/Info : Audio Coding 3
Codec ID : 2000
Duration : 1 h 25 min
Bit rate mode : Constant
Bit rate : 192 kb/s
Channel(s) : 2 channels
Channel positions : Front: L R
Sampling rate : 48.0 kHz
Frame rate : 31.250 FPS (1536 SPF)
Bit depth : 16 bits
Compression mode : Lossy
Stream size : 117 MiB (8%)
Alignment : Split accross interleaves
Interleave, duration : 40 ms (1.00 video frame)
Interleave, preload duratio : 500 ms
Service kind : Complete Main


Трекер:  [ 09-Июл-2018 07:42 ]

  

Скачать .torrent

Размер .torrent файла 14 KB


Размер: 2.72 GB
Хэш (hash) релиза: 62a4624cbaca37be08b437011008d2be814c76d5
Подписка на обновления:

Торренты, похожие на Фламинго Серии: 1-4 из 4 скачать торрент

Форум Название Автор Размер S L Добавлен
Российские сериалы ·%· Фламинго / Серии: 1-4 из 4 (Александр Ефремов) [2018, мелодрама, HDTVRip 720p] Galfimbul 57428897135.35 GB 0 0 1531111342

07:42

9-Июл-18

Еще никто не оставлял запись к записи скачать торрент Фламинго Серии: 1-4 из 4 . Будь первым!

!Обратная связь