MotoGP 18 Free Download Full Version PC Game Setup | The Fixer | Raazi (2018) Hindi Movie v2 New DVDScr 700MB x264 Download

Скачать через торрент Евангелион 3.33: Ты бесплатно Аниме Все серии на русском torrent

Статистика раздачи
Размер:  7.71 GB   |    Зарегистрирован:  2 месяца 15 дней   |    .torrent скачан:  36 раз   |   
Раздают:  1  
   
загрузка...
 
Автор Сообщение

Galfimbul

avatar Galfimbul


Евангелион 3.33: Ты (не) исправишь / Evangelion Shin Gekijouban: Q / Evangelion: 3.33 You Can [Not] Redo

Страна: Япония
Год выпуска: 2012
Жанр: драма, фантастика, меха
Тип: Movie
Продолжительность: 95 мин.
Режиссер: Анно Хидэаки
Студия: Studio Khara
Описание: Мир изменился... Для Синдзи знакомство с ним после пробуждения оказывается оглушающе болезненным. Герою предстоит увидеть, куда ведут благие намерения вчерашних союзников и слепая решимость бывших близких друзей. Но когда рядом сверкнет надежда, у него все-таки найдутся силы что-то изменить - и это может оказаться важнее всего остального.

Третий фильм, штормом захвативший киноэкраны Японии, стал самой «кассовой» частью цикла, и без того не страдавшего от нехватки зрительского внимания. Однако реакция на него была неоднозначной: еще никогда с того времени, как увидели свет финальные серии сериала-первоисточника, Евангелион не вызывал столько споров, не возбуждал столько полярных мнений. Калейдоскоп голосов приводит к единственному возможному выводу: этот фильм - из тех, которые нужно увидеть своими глазами (и, скорее всего, не один раз).© Reanimedia

Качество: BDRip
Тип релиза: Без хардсаба
Формат видео: MKV
Наличие линковки: Нет
Релиз/Автор рипа: xetrin
Источник рипа: Kuji Kita
Видео: AVC/H.264, 1920х1080, 8000 Kb/s, 23.976 fps, 8 bit
Аудио: AC3, 448 kb/s, 48kHz, 6 ch; Язык Русский (в составе контейнера) ; Озвучка: Reanimedia
Аудио 2: DTS-HD, 1509 kb/s, 48kHz, 6 ch; Язык Японский (в составе контейнера)
Субтитры: ASS, встроенные, надписи; Язык субтитров русский ; Перевод: Reanimedia
Субтитры 2: ASS, встроенные, полные; Язык субтитров русский ; Перевод 2: Reanimedia
Субтитры 3: ASS, встроенные, надписи; Язык субтитров русский ; Перевод 3: Evangelion-not-end
Субтитры 4: ASS, встроенные, полные; Язык субтитров русский ; Перевод 4: Evangelion-not-end
GeneralUnique ID : 80086528719649343620996439323752348137 (0x3C401AB8AB2D2FEF7EE50E7C8C0D39E9)Complete name : L:\[xetrin_raws]_Evangelion_3.33_You_Can_(Not)_Redo_[BDRip_1080p]_[Reanimedia]\[xetrin_raws]_Evangelion_3.33_You_Can_(Not)_Redo_[BDRip_1080p_x264_Ac3]_[Reanimedia].mkvFormat : MatroskaFormat version : Version 4 / Version 2File size : 7.21 GiBDuration : 1 h 35 minOverall bit rate : 10.8 Mb/sEncoded date : UTC 2018-07-07 13:07:06Writing application : mkvmerge v24.0.0 ('Beyond The Pale') 64-bitWriting library : libebml v1.3.6 + libmatroska v1.4.9 / Lavf58.12.100

VideoID : 1Format : AVCFormat/Info : Advanced Video CodecFormat profile : [email protected] settings, CABAC : YesFormat settings, ReFrames : 4 framesCodec ID : V_MPEG4/ISO/AVCDuration : 1 h 35 minBit rate : 8 000 kb/sWidth : 1 920 pixelsHeight : 1 080 pixelsDisplay aspect ratio : 16:9Frame rate mode : ConstantFrame rate : 23.976 (23976/1000) FPSColor space : YUVChroma subsampling : 4:2:0Bit depth : 8 bitsScan type : ProgressiveBits/(Pixel*Frame) : 0.161Stream size : 5.35 GiB (74%)Title : [xetrin_raws]Writing library : x264 core 155 r2901 7d0ff22Encoding settings : cabac=1 / ref=3 / deblock=1:0:0 / analyse=0x3:0x113 / me=hex / subme=7 / psy=1 / psy_rd=1.00:0.00 / mixed_ref=1 / me_range=16 / chroma_me=1 / trellis=1 / 8x8dct=1 / cqm=0 / deadzone=21,11 / fast_pskip=1 / chroma_qp_offset=-2 / threads=6 / lookahead_threads=1 / sliced_threads=0 / nr=0 / decimate=1 / interlaced=0 / bluray_compat=0 / constrained_intra=0 / bframes=3 / b_pyramid=2 / b_adapt=1 / b_bias=0 / direct=1 / weightb=1 / open_gop=0 / weightp=2 / keyint=250 / keyint_min=23 / scenecut=40 / intra_refresh=0 / rc_lookahead=40 / rc=abr / mbtree=1 / bitrate=8000 / ratetol=1.0 / qcomp=0.60 / qpmin=0 / qpmax=69 / qpstep=4 / ip_ratio=1.40 / aq=1:1.00Language : JapaneseDefault : YesForced : No

Audio #1ID : 2Format : AC-3Format/Info : Audio Coding 3Mode extension : CM (complete main)Format settings, Endianness : BigCodec ID : A_AC3Duration : 1 h 35 minBit rate mode : ConstantBit rate : 448 kb/sChannel(s) : 6 channelsChannel positions : Front: L C R, Side: L R, LFESampling rate : 48.0 kHzFrame rate : 31.250 FPS (1536 spf)Compression mode : LossyStream size : 307 MiB (4%)Title : ReanimediaLanguage : RussianDefault : YesForced : No

Audio #2ID : 3Format : DTSFormat/Info : Digital Theater SystemsFormat profile : MA / CoreMode : 16Format settings, Endianness : BigCodec ID : A_DTSDuration : 1 h 35 minBit rate mode : Variable / ConstantBit rate : 2 325 kb/s / 1 509 kb/sChannel(s) : 6 channelsChannel positions : Front: L C R, Side: L R, LFESampling rate : 48.0 kHzFrame rate : 93.750 FPS (512 spf)Bit depth : 24 bitsCompression mode : Lossless / LossyStream size : 1.56 GiB (22%)Title : JapaneseLanguage : JapaneseDefault : NoForced : No

Text #1ID : 4Format : ASSCodec ID : S_TEXT/ASSCodec ID/Info : Advanced Sub Station AlphaDuration : 1 h 35 minBit rate : 1 b/sCount of elements : 12Compression mode : LosslessStream size : 799 Bytes (0%)Title : [Reanimedia] [Надписи] [xetrin]Language : RussianDefault : YesForced : No

Text #2ID : 5Format : ASSCodec ID : S_TEXT/ASSCodec ID/Info : Advanced Sub Station AlphaDuration : 1 h 35 minBit rate : 117 b/sCount of elements : 1049Compression mode : LosslessStream size : 82.5 KiB (0%)Title : [Reanimedia] [Субтитры] [xetrin]Language : RussianDefault : NoForced : No

Text #3ID : 6Format : ASSCodec ID : S_TEXT/ASSCodec ID/Info : Advanced Sub Station AlphaDuration : 1 h 9 minBit rate : 1 b/sCount of elements : 9Compression mode : LosslessStream size : 583 Bytes (0%)Title : [Evangelion-not-end] [Надписи] [asuka-joy and Rosetau]Language : RussianDefault : NoForced : No

Text #4ID : 7Format : ASSCodec ID : S_TEXT/ASSCodec ID/Info : Advanced Sub Station AlphaDuration : 1 h 34 minBit rate : 126 b/sCount of elements : 1182Compression mode : LosslessStream size : 87.7 KiB (0%)Title : [Evangelion-not-end] [Субтитры] [asuka-joy and Rosetau]Language : RussianDefault : NoForced : No
...5579055 - BDRip
...4426262 - Альтернативная озвучка


Трекер:  [ 08-Июл-2018 23:30 ]

  

Скачать .torrent

Размер .torrent файла 155 KB


Размер: 7.71 GB
Хэш (hash) релиза: cd6b1063f929c38018277a159d2bb48978b9f64f
Подписка на обновления:

Торренты, похожие на Евангелион 3.33: Ты скачать торрент

Форум Название Автор Размер S L Добавлен
Аниме | HD Rips ·· Евангелион 3.33: Ты (не) Исправишь / Евангелион по-новому (фильм третий) / Evangelion: 3.0 You Can (Not) Redo / Evangelion Shin Gekijouban: Q [Movie] [Без хардсаба] [JAP+SUB] [2012 г., фантастика, меха, драма, BDRip] [720p] L 23291084072.17 GB 0 0 1368219357

23:55

10-Май-13

Аниме | Rips ·%· Евангелион 3.33: Ты (не) исправишь / Evangelion Shin Gekijouban: Q / Evangelion: 3.33 You Can [Not] Redo [Movie] [Без хардсаба] [RUS(int), JAP] [2012, драма, фантастика, меха, BDRip] [720p] [HD] Galfimbul 47218005414.4 GB 0 0 1532116870

23:01

20-Июл-18

Аниме | DVD ·%· Евангелион 3.33: Ты (не) исправишь / Evangelion Shin Gekijouban: Q / Evangelion: 3.0 You Can (Not) Redo [Movie] [RUS, JAP+SUB] [2012, фантастика, меха, драма] [DVD9] Galfimbul 67038506876.24 GB 0 0 1529893809

05:30

25-Июн-18

Аниме | HD Rips ·%· Евангелион 3.33: Ты (не) исправишь / Evangelion Shin Gekijouban: Q / Evangelion: 3.0 You Can (Not) Redo [Movie] [Без хардсаба] [RUS(int), JAP+SUB] [2012, фантастика, меха, драма, Blu-ray] [1080p] Galfimbul 3882829870336.16 GB 0 0 1529861425

20:30

24-Июн-18

Еще никто не оставлял запись к записи скачать торрент Евангелион 3.33: Ты . Будь первым!

!Обратная связь