OpenLoadHD | New Girl | (2018) DVDRip Love, Simon

Скачать через торрент музыку DESIRE "THE ORIGIN" - RYU UMEMOTO RARE TRACKS Vol.2 бесплатно без регистрации torrent

Статистика раздачи
Размер:  687 MB   |    Зарегистрирован:  8 дней   |    .torrent скачан:  22 раза   |   
Раздают:  1  
   
загрузка...
 
Автор Сообщение

Galfimbul

avatar Galfimbul


DESIRE "THE ORIGIN" - RYU UMEMOTO RARE TRACKS Vol.2

Жанр: Soundtrack
Композитор: Ryu Umemoto
Год выпуска диска: 2008
Издатель (лейбл): EGG MUSIC RECORDS / D4Enterprise
Номер по каталогу: EMCA-0005
Аудиокодек: FLAC (*.flac)
Тип рипа: tracks+.cue
Битрейт аудио: lossless
Продолжительность: 127:57
Источник: скачано с
сайт-источник/ник/другое: AnimeBytes
Наличие сканов в содержимом раздачи: да
Треклист:

Tracklist
Disc 1
01 Spiral 5:03
02 Title 0:13
03 Ham-and-eggs 3:13
04 Ishtal 5:47
05 Tina 1:40
06 Consideration 3:45
07 Nonsense 1:12
08 Night 3:06
09 Suspect 1 3:12
10 Brain 4:09
11 Awakening 2:32
12 Dream 3:35
13 Smile 3:44
14 Pursuit 5:26
15 Suspect 2 3:01
16 Sunset 3:16
17 Beat 2:38
18 Indignation 4:13
19 Regret 3:44
20 Plot 4:47
21 Fact 2:27
Disc length 70:43
Disc 2

01 Reflector 4:50
02 Solitude 2:56
03 Memory 1 1:56
04 Memory 2 3:29
05 Feel 2:21
06 Lament 1:48
07 Beginning 3:34
08 Ishtal (YM-2608,1995ver) 5:59
09 Reflector (YM-2608,1995ver) 4:44
10 Beginning (YM-2608,1995ver) 4:05
11 Ishtal (YM-2609,2007ver) 3:22
12 Reflector (YM-2609,2007ver) 2:53
13 Beginning (YM-2609,2007ver) 4:14
14 Ishtal (Unlimited,2008ver) 3:25
15 Reflector (Unlimited,2008ver) 3:25
16 Beginning (Unlimited,2008ver) 4:13
Exact Audio Copy V1.3 from 2. September 2016

EAC extraction logfile from 9. December 2017, 15:18

Ryu Umemoto / Desire: The Origin [Disc A]

Used drive : DiscSoftVirtual Adapter: 1 ID: 1

Read mode : Burst

Read offset correction : 30Overread into Lead-In and Lead-Out : NoFill up missing offset samples with silence : YesDelete leading and trailing silent blocks : NoNull samples used in CRC calculations : YesUsed interface : Native Win32 interface for Win NT & 2000Gap handling : Appended to previous track

Used output format : User Defined EncoderSelected bitrate : 1024 kBit/sQuality : HighAdd ID3 tag : NoCommand line compressor : C:\Program Files (x86)\Exact Audio Copy\FLAC\FLAC.EXEAdditional command line options : -8 -V -T "ARTIST=%artist%" -T "TITLE=%title%" -T "ALBUM=%albumtitle%" -T "DATE=%year%" -T "TRACKNUMBER=%tracknr%" -T "GENRE=%genre%" -T "PERFORMER=%albuminterpret%" -T "COMPOSER=%composer%" %haslyrics%--tag-from-file=LYRICS="%lyricsfile%"%haslyrics% -T "ALBUMARTIST=%albumartist%" -T "DISCNUMBER=%cdnumber%" -T "TOTALDISCS=%totalcds%" -T "TOTALTRACKS=%numtracks%" -T "COMMENT=%comment%" %source% -o %dest%

TOC of the extracted CD

Track | Start | Length | Start sector | End sector --------------------------------------------------------- 1 | 0:00.00 | 5:02.64 | 0 | 22713 2 | 5:02.64 | 0:13.24 | 22714 | 23712 3 | 5:16.13 | 3:13.10 | 23713 | 38197 4 | 8:29.23 | 5:47.37 | 38198 | 64259 5 | 14:16.60 | 1:40.18 | 64260 | 71777 6 | 15:57.03 | 3:45.10 | 71778 | 88662 7 | 19:42.13 | 1:11.44 | 88663 | 94031 8 | 20:53.57 | 3:06.33 | 94032 | 108014 9 | 24:00.15 | 3:12.22 | 108015 | 122436 10 | 27:12.37 | 4:09.15 | 122437 | 141126 11 | 31:21.52 | 2:31.71 | 141127 | 152522 12 | 33:53.48 | 3:34.48 | 152523 | 168620 13 | 37:28.21 | 3:44.07 | 168621 | 185427 14 | 41:12.28 | 5:25.60 | 185428 | 209862 15 | 46:38.13 | 3:01.24 | 209863 | 223461 16 | 49:39.37 | 3:15.57 | 223462 | 238143 17 | 52:55.19 | 2:37.72 | 238144 | 249990 18 | 55:33.16 | 4:13.16 | 249991 | 268981 19 | 59:46.32 | 3:44.18 | 268982 | 285799 20 | 63:30.50 | 4:46.55 | 285800 | 307304 21 | 68:17.30 | 2:26.59 | 307305 | 318313

Track 1

Filename C:\EAC rips\Desire - The Origin\Disk A\01 - Spiral.wav

Pre-gap length 0:00:02.00

Peak level 98.8 % Extraction speed 94.4 X Test CRC 065D7D68 Copy CRC 065D7D68 Accurately ripped (confidence 1) [85E0D1F6] (AR v2) Copy OK

Track 2

Filename C:\EAC rips\Desire - The Origin\Disk A\02 - Title.wav

Pre-gap length 0:00:02.00

Peak level 49.4 % Extraction speed 86.9 X Test CRC DC12955D Copy CRC DC12955D Accurately ripped (confidence 1) [B48C6FFD] (AR v2) Copy OK

Track 3

Filename C:\EAC rips\Desire - The Origin\Disk A\03 - Ham-and-Eggs.wav

Pre-gap length 0:00:02.00

Peak level 98.8 % Extraction speed 93.7 X Test CRC 8788FCD6 Copy CRC 8788FCD6 Accurately ripped (confidence 1) [5F93DDE7] (AR v2) Copy OK

Track 4

Filename C:\EAC rips\Desire - The Origin\Disk A\04 - Ishtal.wav

Pre-gap length 0:00:02.00

Peak level 98.8 % Extraction speed 93.5 X Test CRC 92BB24F7 Copy CRC 92BB24F7 Accurately ripped (confidence 1) [59BFCE79] (AR v2) Copy OK

Track 5

Filename C:\EAC rips\Desire - The Origin\Disk A\05 - Tina.wav

Pre-gap length 0:00:02.00

Peak level 39.6 % Extraction speed 93.3 X Test CRC 988719E9 Copy CRC 988719E9 Accurately ripped (confidence 1) [680E7497] (AR v2) Copy OK

Track 6

Filename C:\EAC rips\Desire - The Origin\Disk A\06 - Consideration.wav

Pre-gap length 0:00:02.00

Peak level 42.7 % Extraction speed 96.5 X Test CRC 33FADDE1 Copy CRC 33FADDE1 Accurately ripped (confidence 1) [E9D7C4F1] (AR v2) Copy OK

Track 7

Filename C:\EAC rips\Desire - The Origin\Disk A\07 - Nonsense.wav

Pre-gap length 0:00:02.00

Peak level 94.7 % Extraction speed 102.3 X Test CRC CE466195 Copy CRC CE466195 Accurately ripped (confidence 1) [B88D99BB] (AR v2) Copy OK

Track 8

Filename C:\EAC rips\Desire - The Origin\Disk A\08 - Night.wav

Pre-gap length 0:00:02.00

Peak level 98.8 % Extraction speed 95.7 X Test CRC 144C870E Copy CRC 144C870E Accurately ripped (confidence 1) [ABA29F2E] (AR v2) Copy OK

Track 9

Filename C:\EAC rips\Desire - The Origin\Disk A\09 - Suspect 1.wav

Pre-gap length 0:00:02.00

Peak level 57.3 % Extraction speed 97.0 X Test CRC 0DCF1DAB Copy CRC 0DCF1DAB Accurately ripped (confidence 1) [89BD8EF3] (AR v2) Copy OK

Track 10

Filename C:\EAC rips\Desire - The Origin\Disk A\10 - Brain.wav

Pre-gap length 0:00:02.00

Peak level 98.8 % Extraction speed 93.8 X Test CRC 4468E8C3 Copy CRC 4468E8C3 Accurately ripped (confidence 1) [28DDEB1E] (AR v2) Copy OK

Track 11

Filename C:\EAC rips\Desire - The Origin\Disk A\11 - Awakening.wav

Pre-gap length 0:00:02.00

Peak level 80.0 % Extraction speed 94.7 X Test CRC F1D99D24 Copy CRC F1D99D24 Accurately ripped (confidence 1) [3CED67F8] (AR v2) Copy OK

Track 12

Filename C:\EAC rips\Desire - The Origin\Disk A\12 - Dream.wav

Pre-gap length 0:00:02.00

Peak level 90.4 % Extraction speed 93.0 X Test CRC 0059DDED Copy CRC 0059DDED Accurately ripped (confidence 1) [7E69F612] (AR v2) Copy OK

Track 13

Filename C:\EAC rips\Desire - The Origin\Disk A\13 - Smile.wav

Pre-gap length 0:00:02.00

Peak level 87.7 % Extraction speed 94.9 X Test CRC B889864F Copy CRC B889864F Accurately ripped (confidence 1) [984EE686] (AR v2) Copy OK

Track 14

Filename C:\EAC rips\Desire - The Origin\Disk A\14 - Pursuit.wav

Pre-gap length 0:00:02.00

Peak level 98.8 % Extraction speed 91.2 X Test CRC CDC1AA9C Copy CRC CDC1AA9C Accurately ripped (confidence 1) [0AADD574] (AR v2) Copy OK

Track 15

Filename C:\EAC rips\Desire - The Origin\Disk A\15 - Suspect 2.wav

Pre-gap length 0:00:02.00

Peak level 20.2 % Extraction speed 94.4 X Test CRC FD0337CF Copy CRC FD0337CF Accurately ripped (confidence 1) [F435E2F2] (AR v2) Copy OK

Track 16

Filename C:\EAC rips\Desire - The Origin\Disk A\16 - Sunset.wav

Pre-gap length 0:00:02.00

Peak level 18.2 % Extraction speed 95.4 X Test CRC 5110AF76 Copy CRC 5110AF76 Accurately ripped (confidence 1) [C21573D3] (AR v2) Copy OK

Track 17

Filename C:\EAC rips\Desire - The Origin\Disk A\17 - Beat.wav

Pre-gap length 0:00:02.00

Peak level 92.4 % Extraction speed 95.2 X Test CRC CD69DA46 Copy CRC CD69DA46 Accurately ripped (confidence 1) [BCDADE94] (AR v2) Copy OK

Track 18

Filename C:\EAC rips\Desire - The Origin\Disk A\18 - Indignation.wav

Pre-gap length 0:00:02.00

Peak level 98.8 % Extraction speed 89.2 X Test CRC 22E24429 Copy CRC 22E24429 Accurately ripped (confidence 1) [E2A6FC92] (AR v2) Copy OK

Track 19

Filename C:\EAC rips\Desire - The Origin\Disk A\19 - Regret.wav

Pre-gap length 0:00:02.00

Peak level 39.6 % Extraction speed 91.1 X Test CRC AACE10A2 Copy CRC AACE10A2 Accurately ripped (confidence 1) [2884BD53] (AR v2) Copy OK

Track 20

Filename C:\EAC rips\Desire - The Origin\Disk A\20 - Plot.wav

Pre-gap length 0:00:02.00

Peak level 47.7 % Extraction speed 92.1 X Test CRC 48E73DDB Copy CRC 48E73DDB Accurately ripped (confidence 1) [183C96F0] (AR v2) Copy OK

Track 21

Filename C:\EAC rips\Desire - The Origin\Disk A\21 - Fact.wav

Pre-gap length 0:00:02.00

Peak level 98.8 % Extraction speed 89.2 X Test CRC F3EC4F57 Copy CRC F3EC4F57 Accurately ripped (confidence 1) [B2FEE828] (AR v2) Copy OK

All tracks accurately ripped

No errors occurred

End of status report

---- CUETools DB Plugin V2.1.6

[CTDB TOCID: 4zSBGbJMQKk5ZUP1VEQ.vl.nsRs-] foundSubmit result: unrecognized or virtual driveTrack | CTDB Status 1 | (6/6) Accurately ripped 2 | (6/6) Accurately ripped 3 | (6/6) Accurately ripped 4 | (6/6) Accurately ripped 5 | (6/6) Accurately ripped 6 | (6/6) Accurately ripped 7 | (6/6) Accurately ripped 8 | (6/6) Accurately ripped 9 | (6/6) Accurately ripped 10 | (6/6) Accurately ripped 11 | (6/6) Accurately ripped 12 | (6/6) Accurately ripped 13 | (6/6) Accurately ripped 14 | (6/6) Accurately ripped 15 | (6/6) Accurately ripped 16 | (6/6) Accurately ripped 17 | (6/6) Accurately ripped 18 | (6/6) Accurately ripped 19 | (6/6) Accurately ripped 20 | (6/6) Accurately ripped 21 | (6/6) Accurately ripped

==== Log checksum E155EBE03C20D12112E20085E4E26E7F4EE72B2E2862A22689782E8D1C14A56F ====

Exact Audio Copy V1.3 from 2. September 2016

EAC extraction logfile from 9. December 2017, 15:15

Ryu Umemoto / Desire: The Origin [Disc B]

Used drive : DiscSoftVirtual Adapter: 1 ID: 2

Read mode : Burst

Read offset correction : 30Overread into Lead-In and Lead-Out : NoFill up missing offset samples with silence : YesDelete leading and trailing silent blocks : NoNull samples used in CRC calculations : YesUsed interface : Native Win32 interface for Win NT & 2000Gap handling : Appended to previous track

Used output format : User Defined EncoderSelected bitrate : 1024 kBit/sQuality : HighAdd ID3 tag : NoCommand line compressor : C:\Program Files (x86)\Exact Audio Copy\FLAC\FLAC.EXEAdditional command line options : -8 -V -T "ARTIST=%artist%" -T "TITLE=%title%" -T "ALBUM=%albumtitle%" -T "DATE=%year%" -T "TRACKNUMBER=%tracknr%" -T "GENRE=%genre%" -T "PERFORMER=%albuminterpret%" -T "COMPOSER=%composer%" %haslyrics%--tag-from-file=LYRICS="%lyricsfile%"%haslyrics% -T "ALBUMARTIST=%albumartist%" -T "DISCNUMBER=%cdnumber%" -T "TOTALDISCS=%totalcds%" -T "TOTALTRACKS=%numtracks%" -T "COMMENT=%comment%" %source% -o %dest%

TOC of the extracted CD

Track | Start | Length | Start sector | End sector --------------------------------------------------------- 1 | 0:00.00 | 4:50.31 | 0 | 21780 2 | 4:50.31 | 2:55.59 | 21781 | 34964 3 | 7:46.15 | 1:56.12 | 34965 | 43676 4 | 9:42.27 | 3:28.73 | 43677 | 59349 5 | 13:11.25 | 2:21.07 | 59350 | 69931 6 | 15:32.32 | 1:48.09 | 69932 | 78040 7 | 17:20.41 | 3:33.39 | 78041 | 94054 8 | 20:54.05 | 5:59.28 | 94055 | 121007 9 | 26:53.33 | 4:44.18 | 121008 | 142325 10 | 31:37.51 | 4:05.37 | 142326 | 160737 11 | 35:43.13 | 3:22.05 | 160738 | 175892 12 | 39:05.18 | 2:52.71 | 175893 | 188863 13 | 41:58.14 | 4:14.01 | 188864 | 207914 14 | 46:12.15 | 3:24.45 | 207915 | 223259 15 | 49:36.60 | 3:25.00 | 223260 | 238634 16 | 53:01.60 | 4:13.00 | 238635 | 257609

Track 1

Filename C:\EAC rips\Desire - The Origin\Disk B\01 - Reflector.wav

Pre-gap length 0:00:02.00

Peak level 98.8 % Extraction speed 89.5 X Test CRC 80E80329 Copy CRC 80E80329 Accurately ripped (confidence 1) [FA4B6558] (AR v2) Copy OK

Track 2

Filename C:\EAC rips\Desire - The Origin\Disk B\02 - Solitude.wav

Pre-gap length 0:00:02.00

Peak level 34.6 % Extraction speed 93.5 X Test CRC 245F221D Copy CRC 245F221D Accurately ripped (confidence 1) [B62D0A11] (AR v2) Copy OK

Track 3

Filename C:\EAC rips\Desire - The Origin\Disk B\03 - Memory 1.wav

Pre-gap length 0:00:02.00

Peak level 16.2 % Extraction speed 95.1 X Test CRC 64A97339 Copy CRC 64A97339 Accurately ripped (confidence 1) [85473A40] (AR v2) Copy OK

Track 4

Filename C:\EAC rips\Desire - The Origin\Disk B\04 - Memory 2.wav

Pre-gap length 0:00:02.00

Peak level 98.8 % Extraction speed 92.4 X Test CRC 30F972F0 Copy CRC 30F972F0 Accurately ripped (confidence 1) [51B9D1EA] (AR v2) Copy OK

Track 5

Filename C:\EAC rips\Desire - The Origin\Disk B\05 - Feel.wav

Pre-gap length 0:00:02.00

Peak level 96.9 % Extraction speed 94.6 X Test CRC A4F61283 Copy CRC A4F61283 Accurately ripped (confidence 1) [9DD14D8B] (AR v2) Copy OK

Track 6

Filename C:\EAC rips\Desire - The Origin\Disk B\06 - Lament.wav

Pre-gap length 0:00:02.00

Peak level 16.6 % Extraction speed 91.2 X Test CRC F1B10052 Copy CRC F1B10052 Accurately ripped (confidence 1) [65A24752] (AR v2) Copy OK

Track 7

Filename C:\EAC rips\Desire - The Origin\Disk B\07 - Beginning.wav

Pre-gap length 0:00:02.00

Peak level 98.8 % Extraction speed 93.6 X Test CRC F66770ED Copy CRC F66770ED Accurately ripped (confidence 1) [2B2552CC] (AR v2) Copy OK

Track 8

Filename C:\EAC rips\Desire - The Origin\Disk B\08 - Ishtal [YM2608, 1995 Version].wav

Pre-gap length 0:00:02.00

Peak level 98.8 % Extraction speed 89.7 X Test CRC ED9362D7 Copy CRC ED9362D7 Accurately ripped (confidence 1) [C94A5CEB] (AR v2) Copy OK

Track 9

Filename C:\EAC rips\Desire - The Origin\Disk B\09 - Reflector [YM2608, 1995 Version].wav

Pre-gap length 0:00:02.00

Peak level 98.8 % Extraction speed 90.9 X Test CRC 721D7905 Copy CRC 721D7905 Accurately ripped (confidence 1) [0D95F059] (AR v2) Copy OK

Track 10

Filename C:\EAC rips\Desire - The Origin\Disk B\10 - Beginning [YM2608, 1995 Version].wav

Pre-gap length 0:00:02.00

Peak level 98.8 % Extraction speed 88.6 X Test CRC 93574615 Copy CRC 93574615 Accurately ripped (confidence 1) [BF9F016E] (AR v2) Copy OK

Track 11

Filename C:\EAC rips\Desire - The Origin\Disk B\11 - Ishtal [YM2609, 2007 Version].wav

Pre-gap length 0:00:02.00

Peak level 88.1 % Extraction speed 93.1 X Test CRC AB584574 Copy CRC AB584574 Accurately ripped (confidence 1) [BD9B6CE3] (AR v2) Copy OK

Track 12

Filename C:\EAC rips\Desire - The Origin\Disk B\12 - Reflector [YM2609, 2007 Version].wav

Pre-gap length 0:00:02.00

Peak level 78.5 % Extraction speed 89.3 X Test CRC CB018FC5 Copy CRC CB018FC5 Accurately ripped (confidence 1) [5974B9D3] (AR v2) Copy OK

Track 13

Filename C:\EAC rips\Desire - The Origin\Disk B\13 - Beginning [YM2609, 2007 Version].wav

Pre-gap length 0:00:02.00

Peak level 98.8 % Extraction speed 88.9 X Test CRC 69E2EA4B Copy CRC 69E2EA4B Accurately ripped (confidence 1) [BA316FF6] (AR v2) Copy OK

Track 14

Filename C:\EAC rips\Desire - The Origin\Disk B\14 - Ishtal [Unlimited, 2008 Version].wav

Pre-gap length 0:00:02.00

Peak level 100.0 % Extraction speed 91.7 X Test CRC D13D1D7F Copy CRC D13D1D7F Accurately ripped (confidence 1) [DC40271A] (AR v2) Copy OK

Track 15

Filename C:\EAC rips\Desire - The Origin\Disk B\15 - Reflector [Unlimited, 2008 Version].wav

Pre-gap length 0:00:02.00

Peak level 100.0 % Extraction speed 89.3 X Test CRC 32D06BBF Copy CRC 32D06BBF Accurately ripped (confidence 1) [AA58FED0] (AR v2) Copy OK

Track 16

Filename C:\EAC rips\Desire - The Origin\Disk B\16 - Beginning [Unlimited, 2008 Version].wav

Pre-gap length 0:00:02.00

Peak level 100.0 % Extraction speed 91.8 X Test CRC 3079DEA0 Copy CRC 3079DEA0 Accurately ripped (confidence 1) [917B73BE] (AR v2) Copy OK

All tracks accurately ripped

No errors occurred

End of status report

---- CUETools DB Plugin V2.1.6

[CTDB TOCID: bFk7ZnhFHMSKsbhQ.THnUvgoDPo-] foundSubmit result: unrecognized or virtual driveTrack | CTDB Status 1 | (7/7) Accurately ripped 2 | (7/7) Accurately ripped 3 | (7/7) Accurately ripped 4 | (7/7) Accurately ripped 5 | (7/7) Accurately ripped 6 | (7/7) Accurately ripped 7 | (7/7) Accurately ripped 8 | (7/7) Accurately ripped 9 | (7/7) Accurately ripped 10 | (7/7) Accurately ripped 11 | (7/7) Accurately ripped 12 | (7/7) Accurately ripped 13 | (7/7) Accurately ripped 14 | (7/7) Accurately ripped 15 | (7/7) Accurately ripped 16 | (7/7) Accurately ripped

==== Log checksum C3E9B092E8266BCB125D983449B3DFE42830958C8D5D9D21E0BF1DE664DC7DFA ====
famous for making videogame soundtracks.
http://en.wikipedia.org/wiki/Ryu_Umemoto
soundtrack for DESIRE - Haitoku no Rasen
http://vndb.org/v151


Трекер:  [ 08-Июл-2018 22:36 ]

  

Скачать .torrent

Размер .torrent файла 217 KB


Размер: 687 MB
Хэш (hash) релиза: 5afcfe77c43ffffa2cffc96338cbdbd2ba7d5406

Еще никто не оставлял запись к записи скачать торрент DESIRE "THE ORIGIN" - RYU UMEMOTO RARE TRACKS Vol.2 . Будь первым!

!Обратная связь