Watch movie | La Dama de Negro 2 | Скачать

Скачать через торрент музыку Театр Being Julia бесплатно без регистрации torrent

Статистика раздачи
Размер:  204 MB   |    Зарегистрирован:  2 месяца 15 дней   |    .torrent скачан:  24 раза   |   
Раздают:  1  
   
загрузка...
 
Автор Сообщение

Galfimbul

avatar Galfimbul


Театр / Being Julia

Название альбома: Being Julia
Жанр: Soundtrack
Композитор: Mychael Danna
Год выпуска диска: 2004
Год выпуска фильма: 2004
Производитель фильма: Canada, United States, Hungary, Great Britain
Издатель (лейбл): Varèse Sarabande / Colosseum
Номер по каталогу: VSD-6621
Аудиокодек: FLAC
Тип рипа: tracks+.cue
Битрейт аудио: lossless
Продолжительность: 00:36:05
Источник: Спасибо, Filex
Наличие сканов в содержимом раздачи: да
01. Mychael Danna - Curtain Up (1:09)
02. Mychael Danna - The Real World (1:37)
03. Mychael Danna - The Lift (0:43)
04. The Andrews Sisters - Bei mir bist du schön (2:46)
performed by The Andrews Sisters
- written by Sholom Secunda, Jacob Jacobs, Sammy Cahn & Saul Chaplin
05. Mychael Danna - Farewell My Love (0:55)
06. The Mills Brothers - Life Is Just a Bowl of Cherries (1:27)
performed by The Mills Brothers
- written by Lee Brown & Ray Henderson
07. Mychael Danna - Never Seen Them Shine Like That Before (0:51)
08. Mychael Danna - Birthday Presents (0:59)
09. Mychael Danna - It Will Only End in Tears (0:26)
10. Denzel Sinclair - They Didn't Believe Me (1:26)
performed by Denzel Sinclair
- written by Jerome Kern & Herbert Reynolds
11. Mychael Danna - Charades (1:05)
12. Mychael Danna - I Saw the Light On (2:44)
13. Mychael Danna - Am I Late (0:42)
14. Mychael Danna - Not That Sort of Girl (0:57)
15. Mychael Danna - Take a Break (1:55)
16. Andrew Paton Story Busher - Yes, Yes (2:59)
performed by Andrew Paton Story Busher
- written by Lew Con Conrad & Cliff Friend
17. Mychael Danna - Avice Gets the Part (0:31)
18. Mychael Danna - Reunion (0:44)
19. Mychael Danna - Play for the Other Side (0:40)
20. Denzel Sinclair - Mad About the Boy (1:56)
performed by Denzel Sinclair
- written by Noel Coward
21. Mychael Danna - Jimmy's Magic (0:14)
22. Mychael Danna - Avice Takes a Bow (0:43)
23. Mychael Danna - For Old Times' Sake (0:46)
24. Mychael Danna - Laird O'Drumblair (0:48)
Public Domain, arranged by Mychael Danna
25. Mychael Danna - The Stage Is Set (0:33)
26. Mychael Danna - Curtain Call (1:25)
27. Alison Jiear - Smoke Gets in Your Eyes (2:21)
performed by Alison Jiaer
- written by Otto Harbach & Jerome Kern
28. Mychael Danna - Quite Alone (2:43)
Exact Audio Copy V1.3 from 2. September 2016

EAC extraction logfile from 8. July 2018, 10:54

Mychael Danna / Being Julia

Used drive : PLEXTOR CD-R PX-230A Adapter: 1 ID: 0

Read mode : SecureUtilize accurate stream : YesDefeat audio cache : YesMake use of C2 pointers : No

Read offset correction : 738Overread into Lead-In and Lead-Out : NoFill up missing offset samples with silence : YesDelete leading and trailing silent blocks : NoNull samples used in CRC calculations : YesUsed interface : Native Win32 interface for Win NT & 2000Gap handling : Appended to previous track

Used output format : User Defined EncoderSelected bitrate : 1024 kBit/sQuality : HighAdd ID3 tag : NoCommand line compressor : C:\Program Files\Exact Audio Copy\Flac\flac.exeAdditional command line options : -6 -V -T "ARTIST=%artist%" -T "TITLE=%title%" -T "ALBUM=%albumtitle%" -T "DATE=%year%" -T "TRACKNUMBER=%tracknr%" -T "GENRE=%genre%" -T "COMMENT=%comment%" -T "ALBUMARTIST=%albuminterpret%" -T "COMPOSER=%composer%" -T "DISCNUMBER=%cdnumber%" -T "TOTALDISCS=%totalcds%" -T "TOTALTRACKS=%numtracks%" %source% -o %dest%

TOC of the extracted CD

Track | Start | Length | Start sector | End sector --------------------------------------------------------- 1 | 0:00.00 | 1:09.15 | 0 | 5189 2 | 1:09.15 | 1:37.27 | 5190 | 12491 3 | 2:46.42 | 0:43.33 | 12492 | 15749 4 | 3:30.00 | 2:46.02 | 15750 | 28201 5 | 6:16.02 | 0:54.73 | 28202 | 32324 6 | 7:11.00 | 1:27.32 | 32325 | 38881 7 | 8:38.32 | 0:50.58 | 38882 | 42689 8 | 9:29.15 | 0:59.32 | 42690 | 47146 9 | 10:28.47 | 0:26.13 | 47147 | 49109 10 | 10:54.60 | 1:25.42 | 49110 | 55526 11 | 12:20.27 | 1:04.50 | 55527 | 60376 12 | 13:25.02 | 2:44.05 | 60377 | 72681 13 | 16:09.07 | 0:41.40 | 72682 | 75796 14 | 16:50.47 | 0:56.53 | 75797 | 80049 15 | 17:47.25 | 1:55.05 | 80050 | 88679 16 | 19:42.30 | 2:59.22 | 88680 | 102126 17 | 22:41.52 | 0:31.23 | 102127 | 104474 18 | 23:13.00 | 0:43.45 | 104475 | 107744 19 | 23:56.45 | 0:40.15 | 107745 | 110759 20 | 24:36.60 | 1:56.37 | 110760 | 119496 21 | 26:33.22 | 0:13.53 | 119497 | 120524 22 | 26:47.00 | 0:43.07 | 120525 | 123756 23 | 27:30.07 | 0:45.38 | 123757 | 127169 24 | 28:15.45 | 0:48.30 | 127170 | 130799 25 | 29:04.00 | 0:32.55 | 130800 | 133254 26 | 29:36.55 | 1:25.30 | 133255 | 139659 27 | 31:02.10 | 2:20.72 | 139660 | 150231 28 | 33:23.07 | 2:42.50 | 150232 | 162431

Track 1

Filename C:\Ripped by Filex\01 - Mychael Danna - Curtain Up.wav

Pre-gap length 0:00:02.00

Peak level 98.8 % Extraction speed 4.4 X Track quality 100.0 % Test CRC 0BF4C257 Copy CRC 0BF4C257 Accurately ripped (confidence 2) [91B0656B] (AR v2) Copy OK

Track 2

Filename C:\Ripped by Filex\02 - Mychael Danna - The Real World.wav

Peak level 98.8 % Extraction speed 6.0 X Track quality 100.0 % Test CRC E5AE3B5E Copy CRC E5AE3B5E Accurately ripped (confidence 2) [570BFC2D] (AR v2) Copy OK

Track 3

Filename C:\Ripped by Filex\03 - Mychael Danna - The Lift.wav

Pre-gap length 0:00:01.22

Peak level 98.8 % Extraction speed 4.4 X Track quality 100.0 % Test CRC 82820628 Copy CRC 82820628 Accurately ripped (confidence 2) [A85267DC] (AR v2) Copy OK

Track 4

Filename C:\Ripped by Filex\04 - The Andrews Sisters - Bei mir bist du schoen.wav

Pre-gap length 0:00:03.15

Peak level 52.0 % Extraction speed 5.6 X Track quality 100.0 % Test CRC 17135481 Copy CRC 17135481 Accurately ripped (confidence 2) [FE0B684D] (AR v2) Copy OK

Track 5

Filename C:\Ripped by Filex\05 - Mychael Danna - Farewell My Love.wav

Pre-gap length 0:00:01.60

Peak level 98.8 % Extraction speed 5.1 X Track quality 100.0 % Test CRC 6A4F6617 Copy CRC 6A4F6617 Accurately ripped (confidence 2) [E3D40B90] (AR v2) Copy OK

Track 6

Filename C:\Ripped by Filex\06 - The Mills Brothers - Life Is Just a Bowl of Cherries.wav

Pre-gap length 0:00:01.40

Peak level 60.3 % Extraction speed 5.5 X Track quality 100.0 % Test CRC 8BAA7ED8 Copy CRC 8BAA7ED8 Accurately ripped (confidence 2) [E005CFF7] (AR v2) Copy OK

Track 7

Filename C:\Ripped by Filex\07 - Mychael Danna - Never Seen Them Shine Like That Before.wav

Pre-gap length 0:00:03.02

Peak level 98.8 % Extraction speed 3.4 X Track quality 99.7 % Test CRC 3FBA92B3 Copy CRC 3FBA92B3 Accurately ripped (confidence 2) [DFC8E8ED] (AR v2) Copy OK

Track 8

Filename C:\Ripped by Filex\08 - Mychael Danna - Birthday Presents.wav

Pre-gap length 0:00:01.35

Peak level 98.8 % Extraction speed 3.6 X Track quality 99.8 % Test CRC 8942EFA8 Copy CRC 8942EFA8 Accurately ripped (confidence 2) [31529B57] (AR v2) Copy OK

Track 9

Filename C:\Ripped by Filex\09 - Mychael Danna - It Will Only End in Tears.wav

Peak level 92.1 % Extraction speed 4.0 X Track quality 100.0 % Test CRC F5DBCEF1 Copy CRC F5DBCEF1 Accurately ripped (confidence 2) [B17BA02A] (AR v2) Copy OK

Track 10

Filename C:\Ripped by Filex\10 - Denzel Sinclair - They Didn't Believe Me.wav

Pre-gap length 0:00:03.30

Peak level 78.5 % Extraction speed 5.9 X Track quality 100.0 % Test CRC D1BDAE40 Copy CRC D1BDAE40 Accurately ripped (confidence 2) [D5B63260] (AR v2) Copy OK

Track 11

Filename C:\Ripped by Filex\11 - Mychael Danna - Charades.wav

Pre-gap length 0:00:01.17

Peak level 98.8 % Extraction speed 6.0 X Track quality 100.0 % Test CRC C4438215 Copy CRC C4438215 Accurately ripped (confidence 2) [2A9648A8] (AR v2) Copy OK

Track 12

Filename C:\Ripped by Filex\12 - Mychael Danna - I Saw the Light On.wav

Pre-gap length 0:00:01.57

Peak level 80.7 % Extraction speed 6.9 X Track quality 100.0 % Test CRC 6683E64D Copy CRC 6683E64D Accurately ripped (confidence 2) [C74F8999] (AR v2) Copy OK

Track 13

Filename C:\Ripped by Filex\13 - Mychael Danna - Am I Late.wav

Pre-gap length 0:00:01.17

Peak level 98.8 % Extraction speed 5.2 X Track quality 100.0 % Test CRC 324B1DA2 Copy CRC 324B1DA2 Accurately ripped (confidence 2) [EA3962ED] (AR v2) Copy OK

Track 14

Filename C:\Ripped by Filex\14 - Mychael Danna - Not That Sort of Girl.wav

Peak level 98.8 % Extraction speed 5.9 X Track quality 100.0 % Test CRC EB478AE9 Copy CRC EB478AE9 Accurately ripped (confidence 2) [2B190FD4] (AR v2) Copy OK

Track 15

Filename C:\Ripped by Filex\15 - Mychael Danna - Take a Break.wav

Peak level 98.8 % Extraction speed 7.0 X Track quality 100.0 % Test CRC 5564CDCC Copy CRC 5564CDCC Accurately ripped (confidence 2) [3707A135] (AR v2) Copy OK

Track 16

Filename C:\Ripped by Filex\16 - Andrew Paton Story Busher - Yes, Yes.wav

Pre-gap length 0:00:01.28

Peak level 75.8 % Extraction speed 6.7 X Track quality 99.9 % Test CRC 5F7A460B Copy CRC 5F7A460B Accurately ripped (confidence 2) [800B62EA] (AR v2) Copy OK

Track 17

Filename C:\Ripped by Filex\17 - Mychael Danna - Avice Gets the Part.wav

Pre-gap length 0:00:03.00

Peak level 98.8 % Extraction speed 5.7 X Track quality 100.0 % Test CRC A9BD6D4F Copy CRC A9BD6D4F Accurately ripped (confidence 2) [E03E3E59] (AR v2) Copy OK

Track 18

Filename C:\Ripped by Filex\18 - Mychael Danna - Reunion.wav

Pre-gap length 0:00:01.28

Peak level 98.8 % Extraction speed 5.9 X Track quality 100.0 % Test CRC 30855A41 Copy CRC 30855A41 Accurately ripped (confidence 2) [D8BCEE69] (AR v2) Copy OK

Track 19

Filename C:\Ripped by Filex\19 - Mychael Danna - Play for the Other Side.wav

Peak level 98.8 % Extraction speed 3.9 X Track quality 99.7 % Test CRC 62B4E1E3 Copy CRC 62B4E1E3 Accurately ripped (confidence 2) [8988739D] (AR v2) Copy OK

Track 20

Filename C:\Ripped by Filex\20 - Denzel Sinclair - Mad About the Boy.wav

Pre-gap length 0:00:01.13

Peak level 52.0 % Extraction speed 6.1 X Track quality 99.9 % Test CRC EE9F45F6 Copy CRC EE9F45F6 Accurately ripped (confidence 2) [8C38F161] (AR v2) Copy OK

Track 21

Filename C:\Ripped by Filex\21 - Mychael Danna - Jimmy's Magic.wav

Peak level 15.9 % Extraction speed 3.2 X Track quality 100.0 % Test CRC A540ECDA Copy CRC A540ECDA Accurately ripped (confidence 2) [654F56E5] (AR v2) Copy OK

Track 22

Filename C:\Ripped by Filex\22 - Mychael Danna - Avice Takes a Bow.wav

Peak level 91.4 % Extraction speed 6.7 X Track quality 100.0 % Test CRC 1DD0217B Copy CRC 1DD0217B Accurately ripped (confidence 2) [F18F3CDC] (AR v2) Copy OK

Track 23

Filename C:\Ripped by Filex\23 - Mychael Danna - For Old Times' Sake.wav

Peak level 98.8 % Extraction speed 4.3 X Track quality 99.7 % Test CRC 36922C24 Copy CRC 36922C24 Accurately ripped (confidence 2) [FAFBB6DC] (AR v2) Copy OK

Track 24

Filename C:\Ripped by Filex\24 - Mychael Danna - Laird O'Drumblair.wav

Pre-gap length 0:00:02.20

Peak level 50.7 % Extraction speed 6.9 X Track quality 100.0 % Test CRC F06C8D56 Copy CRC F06C8D56 Accurately ripped (confidence 2) [AB2AA9C9] (AR v2) Copy OK

Track 25

Filename C:\Ripped by Filex\25 - Mychael Danna - Stage Is Set.wav

Pre-gap length 0:00:01.38

Peak level 98.8 % Extraction speed 5.6 X Track quality 100.0 % Test CRC B02A50E5 Copy CRC B02A50E5 Accurately ripped (confidence 2) [4FA11043] (AR v2) Copy OK

Track 26

Filename C:\Ripped by Filex\26 - Mychael Danna - Curtain Call.wav

Peak level 98.8 % Extraction speed 8.4 X Track quality 100.0 % Test CRC 60DEBD4C Copy CRC 60DEBD4C Accurately ripped (confidence 2) [968469C8] (AR v2) Copy OK

Track 27

Filename C:\Ripped by Filex\27 - Alison Jiair - Smoke Gets in Your Eyes.wav

Pre-gap length 0:00:01.53

Peak level 59.9 % Extraction speed 8.3 X Track quality 100.0 % Test CRC 8172A210 Copy CRC 8172A210 Accurately ripped (confidence 2) [0219D89B] (AR v2) Copy OK

Track 28

Filename C:\Ripped by Filex\28 - Mychael Danna - Quite Alone.wav

Pre-gap length 0:00:02.27

Peak level 98.8 % Extraction speed 7.2 X Track quality 99.9 % Test CRC 91F0BEE2 Copy CRC 91F0BEE2 Accurately ripped (confidence 2) [2F469FFE] (AR v2) Copy OK

All tracks accurately ripped

No errors occurred

End of status report

---- CUETools DB Plugin V2.1.6

[CTDB TOCID: IJaAgFzVLOuYmhNXuMHNLkjfh7E-] foundSubmit result: IJaAgFzVLOuYmhNXuMHNLkjfh7E- has been confirmedTrack | CTDB Status 1 | (5/5) Accurately ripped 2 | (5/5) Accurately ripped 3 | (5/5) Accurately ripped 4 | (5/5) Accurately ripped 5 | (5/5) Accurately ripped 6 | (5/5) Accurately ripped 7 | (5/5) Accurately ripped 8 | (5/5) Accurately ripped 9 | (5/5) Accurately ripped 10 | (5/5) Accurately ripped 11 | (5/5) Accurately ripped 12 | (5/5) Accurately ripped 13 | (5/5) Accurately ripped 14 | (5/5) Accurately ripped 15 | (5/5) Accurately ripped 16 | (5/5) Accurately ripped 17 | (5/5) Accurately ripped 18 | (5/5) Accurately ripped 19 | (5/5) Accurately ripped 20 | (5/5) Accurately ripped 21 | (5/5) Accurately ripped 22 | (5/5) Accurately ripped 23 | (5/5) Accurately ripped 24 | (5/5) Accurately ripped 25 | (5/5) Accurately ripped 26 | (5/5) Accurately ripped 27 | (5/5) Accurately ripped 28 | (5/5) Accurately ripped

==== Log checksum 7E3472C539A83F8CB0374D16EA85C3F7E4D59CE4C2A41E6F6BD498094C058649 ====
REM GENRE SoundtrackREM DATE 2004REM DISCID 8708751CREM COMMENT "ExactAudioCopy v1.3"PERFORMER "Mychael Danna"TITLE "Being Julia"REM COMPOSER "Mychael Danna"FILE "01 - Curtain Up.wav" WAVE TRACK 01 AUDIO TITLE "Curtain Up" PERFORMER "Mychael Danna" REM COMPOSER "Mychael Danna" INDEX 01 00:00:00FILE "02 - The Real World.wav" WAVE TRACK 02 AUDIO TITLE "The Real World" PERFORMER "Mychael Danna" REM COMPOSER "Mychael Danna" INDEX 01 00:00:00 TRACK 03 AUDIO TITLE "The Lift" PERFORMER "Mychael Danna" REM COMPOSER "Mychael Danna" INDEX 00 01:36:05FILE "03 - The Lift.wav" WAVE INDEX 01 00:00:00 TRACK 04 AUDIO TITLE "Bei mir bist du schцn" PERFORMER "The Andrews Sisters" REM COMPOSER "Sholom Secunda, Jacob Jacobs, Sammy Cahn & Saul Chaplin" INDEX 00 00:40:18FILE "04 - Bei mir bist du schoen.wav" WAVE INDEX 01 00:00:00 TRACK 05 AUDIO TITLE "Farewell My Love" PERFORMER "Mychael Danna" REM COMPOSER "Mychael Danna" INDEX 00 02:44:17FILE "05 - Farewell My Love.wav" WAVE INDEX 01 00:00:00 TRACK 06 AUDIO TITLE "Life Is Just a Bowl of Cherries" PERFORMER "The Mills Brothers" REM COMPOSER "Lee Brown & Ray Henderson" INDEX 00 00:53:33FILE "06 - Life Is Just a Bowl of Cherries.wav" WAVE INDEX 01 00:00:00 TRACK 07 AUDIO TITLE "Never Seen Them Shine Like That Before" PERFORMER "Mychael Danna" REM COMPOSER "Mychael Danna" INDEX 00 01:24:30FILE "07 - Never Seen Them Shine Like That Before.wav" WAVE INDEX 01 00:00:00 TRACK 08 AUDIO TITLE "Birthday Presents" PERFORMER "Mychael Danna" REM COMPOSER "Mychael Danna" INDEX 00 00:49:23FILE "08 - Birthday Presents.wav" WAVE INDEX 01 00:00:00FILE "09 - It Will Only End in Tears.wav" WAVE TRACK 09 AUDIO TITLE "It Will Only End in Tears" PERFORMER "Mychael Danna" REM COMPOSER "Mychael Danna" INDEX 01 00:00:00 TRACK 10 AUDIO TITLE "They Didn't Believe Me" PERFORMER "Denzel Sinclair" REM COMPOSER "Jerome Kern & Herbert Reynolds" INDEX 00 00:22:58FILE "10 - They Didn't Believe Me.wav" WAVE INDEX 01 00:00:00 TRACK 11 AUDIO TITLE "Charades" PERFORMER "Mychael Danna" REM COMPOSER "Mychael Danna" INDEX 00 01:24:25FILE "11 - Charades.wav" WAVE INDEX 01 00:00:00 TRACK 12 AUDIO TITLE "I Saw the Light On" PERFORMER "Mychael Danna" REM COMPOSER "Mychael Danna" INDEX 00 01:02:68FILE "12 - I Saw the Light On.wav" WAVE INDEX 01 00:00:00 TRACK 13 AUDIO TITLE "Am I Late" PERFORMER "Mychael Danna" REM COMPOSER "Mychael Danna" INDEX 00 02:42:63FILE "13 - Am I Late.wav" WAVE INDEX 01 00:00:00FILE "14 - Not That Sort of Girl.wav" WAVE TRACK 14 AUDIO TITLE "Not That Sort of Girl" PERFORMER "Mychael Danna" REM COMPOSER "Mychael Danna" INDEX 01 00:00:00FILE "15 - Take a Break.wav" WAVE TRACK 15 AUDIO TITLE "Take a Break" PERFORMER "Mychael Danna" REM COMPOSER "Mychael Danna" INDEX 01 00:00:00 TRACK 16 AUDIO TITLE "Yes, Yes" PERFORMER "Andrew Paton Story Busher" REM COMPOSER "Lew Con Conrad & Cliff Friend" INDEX 00 01:53:52FILE "16 - Yes, Yes.wav" WAVE INDEX 01 00:00:00 TRACK 17 AUDIO TITLE "Avice Gets the Part" PERFORMER "Mychael Danna" REM COMPOSER "Mychael Danna" INDEX 00 02:56:22FILE "17 - Avice Gets the Part.wav" WAVE INDEX 01 00:00:00 TRACK 18 AUDIO TITLE "Reunion" PERFORMER "Mychael Danna" REM COMPOSER "Mychael Danna" INDEX 00 00:29:70FILE "18 - Reunion.wav" WAVE INDEX 01 00:00:00FILE "19 - Play for the Other Side.wav" WAVE TRACK 19 AUDIO TITLE "Play for the Other Side" PERFORMER "Mychael Danna" REM COMPOSER "Mychael Danna" INDEX 01 00:00:00 TRACK 20 AUDIO TITLE "Mad About the Boy" PERFORMER "Denzel Sinclair" REM COMPOSER "Noel Coward" INDEX 00 00:39:02FILE "20 - Mad About the Boy.wav" WAVE INDEX 01 00:00:00FILE "21 - Jimmy's Magic.wav" WAVE TRACK 21 AUDIO TITLE "Jimmy's Magic" PERFORMER "Mychael Danna" REM COMPOSER "Mychael Danna" INDEX 01 00:00:00FILE "22 - Avice Takes a Bow.wav" WAVE TRACK 22 AUDIO TITLE "Avice Takes a Bow" PERFORMER "Mychael Danna" REM COMPOSER "Mychael Danna" INDEX 01 00:00:00FILE "23 - For Old Times' Sake.wav" WAVE TRACK 23 AUDIO TITLE "For Old Times' Sake" PERFORMER "Mychael Danna" REM COMPOSER "Mychael Danna" INDEX 01 00:00:00 TRACK 24 AUDIO TITLE "Laird O'Drumblair" PERFORMER "Mychael Danna" REM COMPOSER "Public Domain, Arranged by Mychael Danna" INDEX 00 00:43:18FILE "24 - Laird O'Drumblair.wav" WAVE INDEX 01 00:00:00 TRACK 25 AUDIO TITLE "The Stage Is Set" PERFORMER "Mychael Danna" REM COMPOSER "Mychael Danna" INDEX 00 00:46:67FILE "25 - The Stage Is Set.wav" WAVE INDEX 01 00:00:00FILE "26 - Curtain Call.wav" WAVE TRACK 26 AUDIO TITLE "Curtain Call" PERFORMER "Mychael Danna" REM COMPOSER "Mychael Danna" INDEX 01 00:00:00 TRACK 27 AUDIO TITLE "Smoke Gets in Your Eyes" PERFORMER "Alison Jiear" REM COMPOSER "Otto Harbach & Jerome Kern" INDEX 00 01:23:52FILE "27 - Smoke Gets in Your Eyes.wav" WAVE INDEX 01 00:00:00 TRACK 28 AUDIO TITLE "Quite Alone" PERFORMER "Mychael Danna" REM COMPOSER "Mychael Danna" INDEX 00 02:18:45FILE "28 - Quite Alone.wav" WAVE INDEX 01 00:00:00


RG Soundtracks


Трекер:  [ 08-Июл-2018 19:06 ]

  

Скачать .torrent

Размер .torrent файла 18 KB


Размер: 204 MB
Хэш (hash) релиза: 21de6d8c508954b5fd42a464e306fd758bd80c03

Еще никто не оставлял запись к записи скачать торрент Театр Being Julia . Будь первым!

!Обратная связь