Annika Blendl | L Odyssee 2016 FRENC H TS XviD MD MP3-Gremlins avi | Quarantine

Скачать через торрент [VIDEO] Несчастный случай Accident Man бесплатно русская версия torrent активатор

Статистика раздачи
Размер:  1.96 GB   |    Зарегистрирован:  2 месяца 13 дней   |    .torrent скачан:  17 раз   |   
Раздают:  1  
   
загрузка...
 
Автор Сообщение

Galfimbul

avatar Galfimbul




Несчастный случай / Accident Man

Год выпуска: 2018
Страна: Великобритания
Жанр: боевик, триллер, криминал
Продолжительность: 01:45:29
Перевод: русский Профессиональный (многоголосый, закадровый) Blu-ray EUR
Оригинальная дорожка: Есть
Субтитры: русские (форсированные), (полные), английские (полные), (SDH)
Режиссер: Джесси Джонсон / Jesse Johnson
В ролях: Скотт Эдкинс, Рэй Стивенсон, Эшли Грин, Дэвид Пэймер, Майкл Джей Уайт, Рэй Парк, Эми Джонстон, Перри Бенсон, Ник Моран, Росс О'Хеннесси и другие .
Описание: Майк Фэллон известен тем, что превращает все свои убийства в несчастный случай. Но его отношение к делу полностью меняется, когда умирает его бывшая девушка .
Релиз группы

Качество: BDRip / рип с Blu-ray disc 1080p [EUR]
Формат: MP4
Видео кодек: H.264
Аудио кодек: AAC
Видео: 1280x536 AR:2.39 2400 kbps 23.976 fps
Аудио №1: [Russian] 2ch 48 kHz 128 kbps - [MVO] Профессиональный (многоголосый, закадровый) Blu-ray EUR
Аудио №2: [English] 2ch 48 kHz 128 kbps - Original
avs [info]: 1280x536p 1:1 @ 24000/1001 fps (cfr)
x264 [info]: using SAR=1/1
x264 [info]: using cpu capabilities: MMX2 SSE2Fast SSSE3 SSE4.2 AVX FMA3 BMI2 AVX2
x264 [info]: profile High, level 4.1

x264 [info]: frame I:1332 Avg QP:14.93 size: 77384
x264 [info]: frame P:36626 Avg QP:18.92 size: 25207
x264 [info]: frame B:113794 Avg QP:21.31 size: 7669
x264 [info]: consecutive B-frames: 4.2% 4.7% 9.9% 19.2% 17.6% 29.6% 6.4% 6.2% 1.6% 0.7%
x264 [info]: mb I I16..4: 5.1% 79.7% 15.2%
x264 [info]: mb P I16..4: 0.9% 8.3% 1.1% P16..4: 35.3% 40.5% 10.2% 0.0% 0.0% skip: 3.7%
x264 [info]: mb B I16..4: 0.0% 0.6% 0.1% B16..8: 40.3% 18.5% 2.3% direct: 2.9% skip:35.2% L0:45.4% L1:47.2% BI: 7.4%
x264 [info]: 8x8 transform intra:80.7% inter:64.0%
x264 [info]: direct mvs spatial:98.3% temporal:1.7%
x264 [info]: coded y,uvDC,uvAC intra: 86.5% 79.9% 53.9% inter: 19.2% 14.2% 5.1%
x264 [info]: i16 v,h,dc,p: 15% 11% 4% 70%
x264 [info]: i8 v,h,dc,ddl,ddr,vr,hd,vl,hu: 9% 6% 5% 11% 16% 14% 15% 12% 13%
x264 [info]: i4 v,h,dc,ddl,ddr,vr,hd,vl,hu: 11% 6% 3% 10% 17% 15% 14% 11% 12%
x264 [info]: i8c dc,h,v,p: 34% 25% 20% 20%
x264 [info]: Weighted P-Frames: Y:10.9% UV:7.1%
x264 [info]: ref P L0: 48.6% 8.2% 17.9% 6.9% 5.5% 3.9% 3.4% 1.9% 1.8% 1.6% 0.3% 0.0%
x264 [info]: ref B L0: 72.5% 11.9% 6.5% 3.0% 2.2% 1.7% 1.3% 0.6% 0.2%
x264 [info]: ref B L1: 94.0% 6.0%
x264 [info]: kb/s:2400.21

encoded 151752 frames, 9.41 fps, 2400.21 kb/s
GeneralComplete name : K:\Torrents\Accident Man.2018.BDRip.x264.1280x.rip by Frost O.S.mp4Format : MPEG-4Format profile : 3GPP Release 6 GeneralCodec ID : 3gg6 (isom/3gg6/mp42)File size : 1.96 GiBDuration : 1 h 45 minOverall bit rate mode : VariableOverall bit rate : 2 662 kb/sEncoded date : UTC 2018-07-08 15:36:43Tagged date : UTC 2018-07-08 15:36:43Writing application : Yamb 2.1.0.0

VideoID : 1Format : AVCFormat/Info : Advanced Video CodecFormat profile : [email protected] settings : CABAC / 10 Ref FramesFormat settings, CABAC : YesFormat settings, RefFrames : 10 framesCodec ID : avc1Codec ID/Info : Advanced Video CodingDuration : 1 h 45 minBit rate : 2 400 kb/sMaximum bit rate : 7 958 kb/sWidth : 1 280 pixelsHeight : 536 pixelsDisplay aspect ratio : 2.40:1Frame rate mode : ConstantFrame rate : 23.976 (24000/1001) FPSColor space : YUVChroma subsampling : 4:2:0Bit depth : 8 bitsScan type : ProgressiveBits/(Pixel*Frame) : 0.146Stream size : 1.77 GiB (90%)Writing library : x264 core 152 r2851 ba24899Encoding settings : cabac=1 / ref=10 / deblock=1:-3:-2 / analyse=0x3:0x113 / me=umh / subme=11 / psy=1 / psy_rd=0.95:0.00 / mixed_ref=1 / me_range=32 / chroma_me=1 / trellis=2 / 8x8dct=1 / cqm=0 / deadzone=21,11 / fast_pskip=0 / chroma_qp_offset=-2 / threads=6 / lookahead_threads=1 / sliced_threads=0 / nr=0 / decimate=0 / interlaced=0 / bluray_compat=0 / constrained_intra=0 / bframes=9 / b_pyramid=2 / b_adapt=2 / b_bias=0 / direct=3 / weightb=1 / open_gop=0 / weightp=2 / keyint=250 / keyint_min=23 / scenecut=40 / intra_refresh=0 / rc=2pass / mbtree=0 / bitrate=2400 / ratetol=1.0 / qcomp=0.70 / qpmin=0 / qpmax=69 / qpstep=4 / cplxblur=20.0 / qblur=0.5 / ip_ratio=1.40 / pb_ratio=1.30 / aq=1:0.80Encoded date : UTC 2018-07-06 11:45:58Tagged date : UTC 2018-07-08 15:37:13Color range : LimitedColor primaries : BT.709Transfer characteristics : BT.709Matrix coefficients : BT.709

Audio #1ID : 2Format : AACFormat/Info : Advanced Audio CodecFormat profile : LCCodec ID : mp4a-40-2Duration : 1 h 45 minBit rate mode : VariableBit rate : 128 kb/sMaximum bit rate : 135 kb/sChannel(s) : 2 channelsChannel positions : Front: L RSampling rate : 48.0 kHzFrame rate : 46.875 FPS (1024 SPF)Compression mode : LossyStream size : 96.6 MiB (5%)Title : Russian / MVO, Blu-ray EUREncoded date : UTC 2018-07-02 18:46:44Tagged date : UTC 2018-07-08 15:37:13

Audio #2ID : 3Format : AACFormat/Info : Advanced Audio CodecFormat profile : LCCodec ID : mp4a-40-2Duration : 1 h 45 minBit rate mode : VariableBit rate : 128 kb/sMaximum bit rate : 133 kb/sChannel(s) : 2 channelsChannel positions : Front: L RSampling rate : 48.0 kHzFrame rate : 46.875 FPS (1024 SPF)Compression mode : LossyStream size : 96.6 MiB (5%)Title : English / OriginalEncoded date : UTC 2018-07-02 18:41:50Tagged date : UTC 2018-07-08 15:37:13

Text #1ID : 4Format : Timed TextCodec ID : tx3gDuration : 1 h 26 minBit rate mode : VariableBit rate : 1 b/sStream size : 435 Bytes (0%)Title : Russian / ForcedForced : NoEncoded date : UTC 2018-07-08 15:37:13Tagged date : UTC 2018-07-08 15:37:13

Text #2ID : 5Format : Timed TextCodec ID : tx3gDuration : 1 h 41 minBit rate mode : VariableBit rate : 96 b/sStream size : 71.4 KiB (0%)Title : Russian / FullForced : NoEncoded date : UTC 2018-07-08 15:37:13Tagged date : UTC 2018-07-08 15:37:13

Text #3ID : 6Format : Timed TextCodec ID : tx3gDuration : 1 h 41 minBit rate mode : VariableBit rate : 85 b/sStream size : 63.6 KiB (0%)Title : English / FullForced : NoEncoded date : UTC 2018-07-08 15:37:13Tagged date : UTC 2018-07-08 15:37:13

Text #4ID : 7Format : Timed TextCodec ID : tx3gDuration : 1 h 43 minBit rate mode : VariableBit rate : 91 b/sStream size : 68.8 KiB (0%)Title : English / SDHForced : NoEncoded date : UTC 2018-07-08 15:37:13Tagged date : UTC 2018-07-08 15:37:13


Трекер:  [ 08-Июл-2018 19:06 ]

  

Скачать .torrent

Размер .torrent файла 20 KB


Размер: 1.96 GB
Хэш (hash) релиза: 5a64fe001fade25e039095851b834079f57c8887

Еще никто не оставлял запись к записи скачать торрент [VIDEO] Несчастный случай Accident Man . Будь первым!

!Обратная связь