Der Seewolf (2) | BDRipVOSTFR Little Witch Academia: Mahoujikake no Parade | Die.Letzten.der.2.Schwadron.1958.German.DL.1080p.BluRay.x264-ROOR

Скачать через торрент [VIDEO] Несчастный случай Accident Man бесплатно русская версия torrent активатор

Статистика раздачи
Размер:  480 MB   |    Зарегистрирован:  2 месяца 13 дней   |    .torrent скачан:  16 раз   |   
Раздают:  1  
   
загрузка...
 
Автор Сообщение

Galfimbul

avatar Galfimbul




Несчастный случай / Accident Man

Год выпуска: 2018
Страна: Великобритания
Жанр: боевик, триллер, криминал
Продолжительность: 01:45:29
Перевод: русский Профессиональный (многоголосый, закадровый) Blu-ray EUR
Субтитры: нет
Режиссер: Джесси Джонсон / Jesse Johnson
В ролях: Скотт Эдкинс, Рэй Стивенсон, Эшли Грин, Дэвид Пэймер, Майкл Джей Уайт, Рэй Парк, Эми Джонстон, Перри Бенсон, Ник Моран, Росс О'Хеннесси и другие .
Описание: Майк Фэллон известен тем, что превращает все свои убийства в несчастный случай. Но его отношение к делу полностью меняется, когда умирает его бывшая девушка .
Релиз группы

Качество: BDRip / рип с Blu-ray disc 1080p [EUR]
Формат: MP4
Видео кодек: XviD
Аудио кодек: AAC
Видео: 480x200 AR:2.40 505 kbps 23.976 fps
Аудио: [Russian] 2ch 48 kHz 128 kbps - [MVO] Профессиональный (многоголосый, закадровый) Blu-ray EUR
GeneralComplete name : K:\Torrents\Accident Man.2018.BDRip.XviD.480x.rip by Frost O.S.mp4Format : MPEG-4Format profile : 3GPP Media Release 5Codec ID : 3gp5 (isom/3gp5/3gp4/mp41/mp42)File size : 480 MiBDuration : 1 h 45 minOverall bit rate mode : VariableOverall bit rate : 637 kb/sEncoded date : UTC 2018-07-08 15:46:44Tagged date : UTC 2018-07-08 15:46:44

VideoID : 1Format : MPEG-4 VisualFormat profile : Advanced [email protected] settings : BVOP / Custom MatrixFormat settings, BVOP : YesFormat settings, QPel : NoFormat settings, GMC : No warppointsFormat settings, Matrix : CustomCodec ID : mp4v-20Duration : 1 h 45 minBit rate mode : VariableBit rate : 505 kb/sMaximum bit rate : 3 452 kb/sWidth : 480 pixelsHeight : 200 pixelsDisplay aspect ratio : 2.40:1Frame rate mode : ConstantFrame rate : 23.976 (24000/1001) FPSColor space : YUVChroma subsampling : 4:2:0Bit depth : 8 bitsScan type : ProgressiveCompression mode : LossyBits/(Pixel*Frame) : 0.219Stream size : 381 MiB (79%)Title : [email protected]-DEV-rev248-g39d5978-masterWriting library : XviD 1.2.1 (UTC 2008-12-04)Encoded date : UTC 2018-07-05 17:53:39Tagged date : UTC 2018-07-08 15:46:47

AudioID : 2Format : AACFormat/Info : Advanced Audio CodecFormat profile : LCCodec ID : mp4a-40-2Duration : 1 h 45 minBit rate mode : VariableBit rate : 128 kb/sMaximum bit rate : 135 kb/sChannel(s) : 2 channelsChannel positions : Front: L RSampling rate : 48.0 kHzFrame rate : 46.875 FPS (1024 SPF)Compression mode : LossyStream size : 96.6 MiB (20%)Title : Russian / MVO, Blu-ray EUREncoded date : UTC 2018-07-02 18:46:44Tagged date : UTC 2018-07-08 15:46:47


Трекер:  [ 08-Июл-2018 19:06 ]

  

Скачать .torrent

Размер .torrent файла 19 KB


Размер: 480 MB
Хэш (hash) релиза: dec8f0393b2b9290e112263c4b311d00f17996fe

Еще никто не оставлял запись к записи скачать торрент [VIDEO] Несчастный случай Accident Man . Будь первым!

!Обратная связь