Photographer's Guide to the Fujifilm FinePix X100 | W blasku nocy / Midnight Sun (2018) [BDRip] [Xvid-KiT] [Lektor PL] | Anne auf Green Gables

Скачать через торрент Три мастера Фильм бесплатно в хорошем качестве torrent

Скачивайте на UnionPeer.org фильмы через торрент без регистрации. Новинки кино в хорошем качестве через торрент. На UnionPeer.org можно скачать через торрент фильмы 2014 и 2015 годов. Самые новые фильмы.

Скачать торрент Три мастера бесплатно через .torrent фильм мультфильм сериал

Статистика раздачи
Размер:  169 MB   |    Зарегистрирован:  9 дней   |    .torrent скачан:  23 раза   |   
Раздают:  1  
   
загрузка...
 
Автор Сообщение

Galfimbul

avatar Galfimbul


Три мастера
Жанр: мультфильм, кукольный
Студия: Казахфильм
Продолжительность: 00:09:43
Год выпуска: 1981
Режиссёр: Болат Омаров
Описание: По мотивам восточных сказок. Три мастера - резчик по дереву, портной и ювелир - совершили чудо: создали из обыкновенного полена девушку, которая ожила от их искусства.
Качество: DVB [Ел Арна] (эфир 08.07.2018)
Формат: TS
Видео: AVC, 720x576 (16:9) @ 1047x576, 25 fps, ~2111 kbps, 0.204 bit/pixel
Аудио: [RUS] MP2, 48 kHz, 2 ch, 192 kbps
GeneralID : 1 (0x1)Complete name : H:\Раздачи\Три мастера (1981).tsFormat : MPEG-TSFile size : 169 MiBDuration : 9 min 43 sOverall bit rate mode : VariableOverall bit rate : 2 425 kb/s

VideoID : 67 (0x43)Menu ID : 1 (0x1)Format : AVCFormat/Info : Advanced Video CodecFormat profile : [email protected] settings : CABAC / 3 Ref FramesFormat settings, CABAC : YesFormat settings, ReFrames : 3 framesCodec ID : 27Duration : 9 min 43 sBit rate : 2 111 kb/sWidth : 720 pixelsHeight : 576 pixelsDisplay aspect ratio : 16:9Frame rate : 25.000 FPSStandard : ComponentColor space : YUVChroma subsampling : 4:2:0Bit depth : 8 bitsScan type : InterlacedScan type, store method : Separated fieldsScan order : Top Field FirstBits/(Pixel*Frame) : 0.204Stream size : 147 MiB (87%)Color range : LimitedColor primaries : BT.601 PALTransfer characteristics : BT.470 System B/GMatrix coefficients : BT.470 System B/G

AudioID : 68 (0x44)Menu ID : 1 (0x1)Format : MPEG AudioFormat version : Version 1Format profile : Layer 2Codec ID : 3Duration : 9 min 43 sBit rate mode : ConstantBit rate : 192 kb/sChannel(s) : 2 channelsSampling rate : 48.0 kHzFrame rate : 41.667 FPS (1152 SPF)Compression mode : LossyDelay relative to video : -40 msStream size : 13.4 MiB (8%)Language : English


Трекер:  [ 08-Июл-2018 10:01 ]

  

Скачать .torrent

Размер .torrent файла 13 KB


Размер: 169 MB
Хэш (hash) релиза: 3ec2186ef697cf04236b43b687cf7edcbc6abe25
Подписка на обновления:

Еще никто не оставлял запись к записи скачать торрент Три мастера . Будь первым!

!Обратная связь