3 Comment | Girls Bravo | Flirt Dangereux

Скачать через торрент Медведь и заяц Фильм бесплатно в хорошем качестве torrent

Скачивайте на UnionPeer.org фильмы через торрент без регистрации. Новинки кино в хорошем качестве через торрент. На UnionPeer.org можно скачать через торрент фильмы 2014 и 2015 годов. Самые новые фильмы.

Скачать торрент Медведь и заяц бесплатно через .torrent фильм мультфильм сериал

Статистика раздачи
Размер:  134 MB   |    Зарегистрирован:  2 месяца 18 дней   |    .torrent скачан:  25 раз   |   
Раздают:  1  
   
загрузка...
 
Автор Сообщение

Galfimbul

avatar Galfimbul


Медведь и заяц
Жанр: мультфильм, кукольный
Студия: Казахфильм
Продолжительность: 00:07:43
Год выпуска: 1969
Режиссёр: Гани Кистауов
Описание: Мультфильм для самых маленьких, созданный по мотивам народных казахских сказок о торжестве добра над злом.
Качество: DVB [Ел Арна] (эфир 08.07.2018)
Формат: TS
Видео: AVC, 720x576 (16:9) @ 1047x576, 25 fps, ~2112 kbps, 0.204 bit/pixel
Аудио: [RUS] MP2, 48 kHz, 2 ch, 192 kbps
GeneralID : 1 (0x1)Complete name : H:\Раздачи\Медведь и заяц (1969).tsFormat : MPEG-TSFile size : 134 MiBDuration : 7 min 43 sOverall bit rate mode : VariableOverall bit rate : 2 426 kb/s

VideoID : 67 (0x43)Menu ID : 1 (0x1)Format : AVCFormat/Info : Advanced Video CodecFormat profile : [email protected] settings : CABAC / 3 Ref FramesFormat settings, CABAC : YesFormat settings, ReFrames : 3 framesFormat settings, GOP : M=4, N=32Codec ID : 27Duration : 7 min 42 sBit rate : 2 112 kb/sWidth : 720 pixelsHeight : 576 pixelsDisplay aspect ratio : 16:9Frame rate : 25.000 FPSStandard : ComponentColor space : YUVChroma subsampling : 4:2:0Bit depth : 8 bitsScan type : InterlacedScan type, store method : Separated fieldsScan order : Top Field FirstBits/(Pixel*Frame) : 0.204Stream size : 117 MiB (87%)Color range : LimitedColor primaries : BT.601 PALTransfer characteristics : BT.470 System B/GMatrix coefficients : BT.470 System B/G

AudioID : 68 (0x44)Menu ID : 1 (0x1)Format : MPEG AudioFormat version : Version 1Format profile : Layer 2Codec ID : 3Duration : 7 min 42 sBit rate mode : ConstantBit rate : 192 kb/sChannel(s) : 2 channelsSampling rate : 48.0 kHzFrame rate : 41.667 FPS (1152 SPF)Compression mode : LossyDelay relative to video : -80 msStream size : 10.6 MiB (8%)Language : English


Трекер:  [ 08-Июл-2018 09:30 ]

  

Скачать .torrent

Размер .torrent файла 11 KB


Размер: 134 MB
Хэш (hash) релиза: 3e65cfbb416387ec6245a89e916cc30eca391b22
Подписка на обновления:

Еще никто не оставлял запись к записи скачать торрент Медведь и заяц . Будь первым!

!Обратная связь