Ballers (2015) S4E4 Episode 4 | Trance Maniacs Party - Progressive Session 35 | HDCAM The Meg

Скачать через торрент музыку Мир Юрского периода 2 Jurassic World: Fallen Kingdom бесплатно без регистрации torrent

Статистика раздачи
Размер:  400 MB   |    Зарегистрирован:  2 месяца 16 дней   |    .torrent скачан:  36 раз   |   
Раздают:  1  
   
загрузка...
 
Автор Сообщение

Galfimbul

avatar Galfimbul


Мир Юрского периода 2 / Jurassic World: Fallen Kingdom

Жанр: Score
Композитор: Michael Giacchino
Год выпуска диска: 2018
Аудиокодек: FLAC (*.flac)
Тип рипа: tracks+.cue
Битрейт аудио: lossless
Продолжительность: 01:15:36
Источник: собственный рип
Наличие сканов в содержимом раздачи: да
Треклист:
01. This Title Makes Me Jurassic
02. The Theropod Preservation Society
03. Maisie and the Island 2:07
04. March of the Wheatley Cavalcade
05. Nostalgia-Saurus
06. Lava Land
07. Keep Calm and Baryonyx
08. Go With the Pyroclastic Flow
09. Raiders of the Lost Isla Nublar
10. Volcano to Death
11. Operation Blue Blood
12. Jurassic Pillow Talk
13. How to Pick a Lockwood
14. Wilting Iris
15. Shock and Auction
16. Thus Begins the Indo-Rapture
17. You Can Be So Hard-Headed
18. Between the Devil and the Deep Blue Free
19. There's Something About Maisie
20. World's Worst Bedtime Storyteller
21. Declaration of Indo-Pendence
22. To Free or Not to Free
23. The Neo-Jurassic Age
24. At Jurassic World's End Credits/Suite
X Lossless Decoder version 20170729 (150.3)

XLD extraction logfile from 2018-07-07 10:07:49 -0500

Michael Giacchino / Jurassic World: Fallen Kingdom - Original Motion Picture Soundtrack

Used drive : TSSTcorp BDDVDW SE-506CB (revision TS00)Media type : Pressed CD

Ripper mode : XLD Secure RipperDisable audio cache : OK for the drive with a cache less than 1375KiBMake use of C2 pointers : NORead offset correction : 6Max retry count : 100Gap status : Analyzed, Appended

TOC of the extracted CD Track | Start | Length | Start sector | End sector --------------------------------------------------------- 1 | 00:00:00 | 02:55:38 | 0 | 13162 2 | 02:55:38 | 03:48:58 | 13163 | 30320 3 | 06:44:21 | 02:09:11 | 30321 | 40006 4 | 08:53:32 | 02:15:48 | 40007 | 50179 5 | 11:09:05 | 01:06:68 | 50180 | 55197 6 | 12:15:73 | 03:18:37 | 55198 | 70084 7 | 15:34:35 | 02:47:52 | 70085 | 82661 8 | 18:22:12 | 03:44:48 | 82662 | 99509 9 | 22:06:60 | 03:22:27 | 99510 | 114686 10 | 25:29:12 | 01:40:15 | 114687 | 122201 11 | 27:09:27 | 03:45:20 | 122202 | 139096 12 | 30:54:47 | 02:48:73 | 139097 | 151769 13 | 33:43:45 | 03:11:66 | 151770 | 166160 14 | 36:55:36 | 01:12:56 | 166161 | 171616 15 | 38:08:17 | 02:29:55 | 171617 | 182846 16 | 40:37:72 | 03:42:45 | 182847 | 199541 17 | 44:20:42 | 02:30:32 | 199542 | 210823 18 | 46:50:74 | 03:30:38 | 210824 | 226611 19 | 50:21:37 | 01:22:08 | 226612 | 232769 20 | 51:43:45 | 02:28:53 | 232770 | 243922 21 | 54:12:23 | 04:04:01 | 243923 | 262223 22 | 58:16:24 | 03:02:30 | 262224 | 275903 23 | 61:18:54 | 03:34:56 | 275904 | 292009 24 | 64:53:35 | 10:55:05 | 292010 | 341139

AccurateRip Summary Disc not found in AccurateRip DB.

All Tracks Album gain : -5.56 dB Peak : 0.998962 Statistics Read error : 0 Jitter error (maybe fixed) : 2 Retry sector count : 1165 Damaged sector count : 0

Track 01 Filename : /Users/kgpat/Desktop/Convert/JurassicWorldFLAC/01 Michael Giacchino - This Title Makes Me Jurassic.flac Pre-gap length : 00:02:00

Track gain : -5.67 dB Peak : 0.944397 CRC32 hash : 8BD4F83E CRC32 hash (skip zero) : 9E970806 AccurateRip v1 signature : 85B1CE89 AccurateRip v2 signature : 72BB2613 ->Track not present in AccurateRip database. Statistics Read error : 0 Jitter error (maybe fixed) : 0 Retry sector count : 0 Damaged sector count : 0

Track 02 Filename : /Users/kgpat/Desktop/Convert/JurassicWorldFLAC/02 Michael Giacchino - The Theropod Preservation Society.flac Pre-gap length : 00:01:38

Track gain : -3.26 dB Peak : 0.944153 CRC32 hash : 8F191888 CRC32 hash (skip zero) : F9009515 AccurateRip v1 signature : 977AE241 AccurateRip v2 signature : B3503CA9 ->Track not present in AccurateRip database. Statistics Read error : 0 Jitter error (maybe fixed) : 0 Retry sector count : 0 Damaged sector count : 0

Track 03 Filename : /Users/kgpat/Desktop/Convert/JurassicWorldFLAC/03 Michael Giacchino - Maisie And The Island.flac Pre-gap length : 00:01:38

Track gain : -5.33 dB Peak : 0.945068 CRC32 hash : 8DF4C824 CRC32 hash (skip zero) : 3E3CEC70 AccurateRip v1 signature : 9725E86C AccurateRip v2 signature : 10BCD5D0 ->Track not present in AccurateRip database. Statistics Read error : 0 Jitter error (maybe fixed) : 0 Retry sector count : 0 Damaged sector count : 0

Track 04 Filename : /Users/kgpat/Desktop/Convert/JurassicWorldFLAC/04 Michael Giacchino - March Of The Wheatley Cavalcade.flac Pre-gap length : 00:01:38

Track gain : -5.27 dB Peak : 0.987732 CRC32 hash : A5BC309C CRC32 hash (skip zero) : 6290431E AccurateRip v1 signature : C1573191 AccurateRip v2 signature : 41D55B8F ->Track not present in AccurateRip database. Statistics Read error : 0 Jitter error (maybe fixed) : 0 Retry sector count : 0 Damaged sector count : 0

Track 05 Filename : /Users/kgpat/Desktop/Convert/JurassicWorldFLAC/05 Michael Giacchino - Nostalgia-Saurus.flac Pre-gap length : 00:01:38

Track gain : -4.10 dB Peak : 0.944122 CRC32 hash : C1271E59 CRC32 hash (skip zero) : B6D91148 AccurateRip v1 signature : A6729376 AccurateRip v2 signature : C2A9A7C1 ->Track not present in AccurateRip database. Statistics Read error : 0 Jitter error (maybe fixed) : 0 Retry sector count : 0 Damaged sector count : 0

Track 06 Filename : /Users/kgpat/Desktop/Convert/JurassicWorldFLAC/06 Michael Giacchino - Lava Land.flac Pre-gap length : 00:01:38

Track gain : -5.70 dB Peak : 0.949768 CRC32 hash : EBB01524 CRC32 hash (skip zero) : E49E5A8C AccurateRip v1 signature : 580CD7F9 AccurateRip v2 signature : F61F1307 ->Track not present in AccurateRip database. Statistics Read error : 0 Jitter error (maybe fixed) : 0 Retry sector count : 0 Damaged sector count : 0

Track 07 Filename : /Users/kgpat/Desktop/Convert/JurassicWorldFLAC/07 Michael Giacchino - Keep Calm And Baryonyx.flac Pre-gap length : 00:01:38

Track gain : -5.36 dB Peak : 0.947174 CRC32 hash : 7DB1216A CRC32 hash (skip zero) : B4CB44BB AccurateRip v1 signature : 1B0FE486 AccurateRip v2 signature : 43D96593 ->Track not present in AccurateRip database. Statistics Read error : 0 Jitter error (maybe fixed) : 0 Retry sector count : 1 Damaged sector count : 0

Track 08 Filename : /Users/kgpat/Desktop/Convert/JurassicWorldFLAC/08 Michael Giacchino - Go With The Pyroclastic Flow.flac Pre-gap length : 00:01:38

Track gain : -5.39 dB Peak : 0.945831 CRC32 hash : 9244B2E8 CRC32 hash (skip zero) : EF6867E7 AccurateRip v1 signature : 3D3081D5 AccurateRip v2 signature : DC31EFF8 ->Track not present in AccurateRip database. Statistics Read error : 0 Jitter error (maybe fixed) : 0 Retry sector count : 0 Damaged sector count : 0

Track 09 Filename : /Users/kgpat/Desktop/Convert/JurassicWorldFLAC/09 Michael Giacchino - Raiders Of The Lost Isla Nublar.flac Pre-gap length : 00:01:38

Track gain : -4.71 dB Peak : 0.944977 CRC32 hash : 79E8AAC4 CRC32 hash (skip zero) : C3DE3324 AccurateRip v1 signature : C7F55141 AccurateRip v2 signature : 7A94CA69 ->Track not present in AccurateRip database. Statistics Read error : 0 Jitter error (maybe fixed) : 0 Retry sector count : 0 Damaged sector count : 0

Track 10 Filename : /Users/kgpat/Desktop/Convert/JurassicWorldFLAC/10 Michael Giacchino - Volcano To Death.flac Pre-gap length : 00:01:38

Track gain : -6.20 dB Peak : 0.944122 CRC32 hash : 848E54BC CRC32 hash (skip zero) : 10EE9DCA AccurateRip v1 signature : CF5FB5A8 AccurateRip v2 signature : 6DFF9438 ->Track not present in AccurateRip database. Statistics Read error : 0 Jitter error (maybe fixed) : 0 Retry sector count : 0 Damaged sector count : 0

Track 11 Filename : /Users/kgpat/Desktop/Convert/JurassicWorldFLAC/11 Michael Giacchino - Operation Blue Blood.flac Pre-gap length : 00:01:38

Track gain : 5.18 dB Peak : 0.944031 CRC32 hash : 6DF3D294 CRC32 hash (skip zero) : 931984E6 AccurateRip v1 signature : 83F60DB2 AccurateRip v2 signature : 6BCA1F01 ->Track not present in AccurateRip database. Statistics Read error : 0 Jitter error (maybe fixed) : 0 Retry sector count : 0 Damaged sector count : 0

Track 12 Filename : /Users/kgpat/Desktop/Convert/JurassicWorldFLAC/12 Michael Giacchino - Jurassic Pillow Talk.flac Pre-gap length : 00:01:38

Track gain : -6.43 dB Peak : 0.944794 CRC32 hash : 781DB62A CRC32 hash (skip zero) : 30ADE97B AccurateRip v1 signature : C52E8955 AccurateRip v2 signature : FAD1FC27 ->Track not present in AccurateRip database. Statistics Read error : 0 Jitter error (maybe fixed) : 1 Retry sector count : 499 Damaged sector count : 0

Track 13 Filename : /Users/kgpat/Desktop/Convert/JurassicWorldFLAC/13 Michael Giacchino - How To Pick A Lockwood.flac Pre-gap length : 00:01:38

Track gain : 0.12 dB Peak : 0.998962 CRC32 hash : E04844E9 CRC32 hash (skip zero) : 10A5B0D8 AccurateRip v1 signature : EC7DE9F1 AccurateRip v2 signature : 6C1DFDD7 ->Track not present in AccurateRip database. Statistics Read error : 0 Jitter error (maybe fixed) : 0 Retry sector count : 0 Damaged sector count : 0

Track 14 Filename : /Users/kgpat/Desktop/Convert/JurassicWorldFLAC/14 Michael Giacchino - Wilting Iris.flac Pre-gap length : 00:01:38

Track gain : 7.76 dB Peak : 0.411774 CRC32 hash : D58CFD7D CRC32 hash (skip zero) : CAC488AC AccurateRip v1 signature : 4BD32B59 AccurateRip v2 signature : 0C51263E ->Track not present in AccurateRip database. Statistics Read error : 0 Jitter error (maybe fixed) : 0 Retry sector count : 0 Damaged sector count : 0

Track 15 Filename : /Users/kgpat/Desktop/Convert/JurassicWorldFLAC/15 Michael Giacchino - Shock And Auction.flac Pre-gap length : 00:01:38

Track gain : -5.51 dB Peak : 0.944672 CRC32 hash : 01E27BF2 CRC32 hash (skip zero) : D6A370D5 AccurateRip v1 signature : F25B2734 AccurateRip v2 signature : CCE19B15 ->Track not present in AccurateRip database. Statistics Read error : 0 Jitter error (maybe fixed) : 0 Retry sector count : 0 Damaged sector count : 0

Track 16 Filename : /Users/kgpat/Desktop/Convert/JurassicWorldFLAC/16 Michael Giacchino - Thus Begins The Indo-rapture.flac Pre-gap length : 00:01:38

Track gain : -5.28 dB Peak : 0.964935 CRC32 hash : 78A1BD13 CRC32 hash (skip zero) : 8775ED73 AccurateRip v1 signature : 7D4C0400 AccurateRip v2 signature : 1CFB4DE6 ->Track not present in AccurateRip database. Statistics Read error : 0 Jitter error (maybe fixed) : 0 Retry sector count : 0 Damaged sector count : 0

Track 17 Filename : /Users/kgpat/Desktop/Convert/JurassicWorldFLAC/17 Michael Giacchino - You Can Be So Hard-Headed.flac Pre-gap length : 00:01:38

Track gain : -5.87 dB Peak : 0.945618 CRC32 hash : 8DDB4D40 CRC32 hash (skip zero) : 7ECDCE7C AccurateRip v1 signature : 0B170C20 AccurateRip v2 signature : 6DA4C6DA ->Track not present in AccurateRip database. Statistics Read error : 0 Jitter error (maybe fixed) : 0 Retry sector count : 0 Damaged sector count : 0

Track 18 Filename : /Users/kgpat/Desktop/Convert/JurassicWorldFLAC/18 Michael Giacchino - Between The Devil And The Deep Blue Free.flac Pre-gap length : 00:01:38

Track gain : -5.41 dB Peak : 0.945312 CRC32 hash : F7E5C497 CRC32 hash (skip zero) : F4C0AEC3 AccurateRip v1 signature : 56D7045E AccurateRip v2 signature : 43B5380A ->Track not present in AccurateRip database. Statistics Read error : 0 Jitter error (maybe fixed) : 0 Retry sector count : 0 Damaged sector count : 0

Track 19 Filename : /Users/kgpat/Desktop/Convert/JurassicWorldFLAC/19 Michael Giacchino - There's Something About Maisie.flac Pre-gap length : 00:01:38

Track gain : -5.73 dB Peak : 0.945740 CRC32 hash : 31514CEF CRC32 hash (skip zero) : 7157235E AccurateRip v1 signature : 0F87DE82 AccurateRip v2 signature : A2E87E83 ->Track not present in AccurateRip database. Statistics Read error : 0 Jitter error (maybe fixed) : 0 Retry sector count : 0 Damaged sector count : 0

Track 20 Filename : /Users/kgpat/Desktop/Convert/JurassicWorldFLAC/20 Michael Giacchino - World's Worst Bedtime Storyteller.flac Pre-gap length : 00:01:38

Track gain : -7.52 dB Peak : 0.946411 CRC32 hash : 21F800D4 CRC32 hash (skip zero) : 633A7FC7 AccurateRip v1 signature : 7D3DE338 AccurateRip v2 signature : 567719FC ->Track not present in AccurateRip database. Statistics Read error : 0 Jitter error (maybe fixed) : 0 Retry sector count : 0 Damaged sector count : 0

Track 21 Filename : /Users/kgpat/Desktop/Convert/JurassicWorldFLAC/21 Michael Giacchino - Declaration Of Indo-pendence.flac Pre-gap length : 00:01:38

Track gain : -5.73 dB Peak : 0.945953 CRC32 hash : 9B1E1B84 CRC32 hash (skip zero) : B3F887B9 AccurateRip v1 signature : EFB86F49 AccurateRip v2 signature : B2B2BF32 ->Track not present in AccurateRip database. Statistics Read error : 0 Jitter error (maybe fixed) : 0 Retry sector count : 54 Damaged sector count : 0

Track 22 Filename : /Users/kgpat/Desktop/Convert/JurassicWorldFLAC/22 Michael Giacchino - To Free Or Not To Free.flac Pre-gap length : 00:01:38

Track gain : -5.38 dB Peak : 0.954468 CRC32 hash : D5BA2902 CRC32 hash (skip zero) : 60992319 AccurateRip v1 signature : 52407AA3 AccurateRip v2 signature : 85031287 ->Track not present in AccurateRip database. Statistics Read error : 0 Jitter error (maybe fixed) : 0 Retry sector count : 0 Damaged sector count : 0

Track 23 Filename : /Users/kgpat/Desktop/Convert/JurassicWorldFLAC/23 Michael Giacchino - The Neo-Jurassic Age.flac Pre-gap length : 00:01:38

Track gain : -6.99 dB Peak : 0.955048 CRC32 hash : D49EA23C CRC32 hash (skip zero) : 963497A4 AccurateRip v1 signature : 43DB17F4 AccurateRip v2 signature : 1F11F22C ->Track not present in AccurateRip database. Statistics Read error : 0 Jitter error (maybe fixed) : 0 Retry sector count : 0 Damaged sector count : 0

Track 24 Filename : /Users/kgpat/Desktop/Convert/JurassicWorldFLAC/24 Michael Giacchino - At Jurassic World's End Credits\Suite.flac Pre-gap length : 00:01:38

Track gain : -5.99 dB Peak : 0.953003 CRC32 hash : 1078C419 CRC32 hash (skip zero) : FF006B31 AccurateRip v1 signature : DF4E2FF8 AccurateRip v2 signature : 1CC0A112 ->Track not present in AccurateRip database. Statistics Read error : 0 Jitter error (maybe fixed) : 1 Retry sector count : 611 Damaged sector count : 0

No errors occurred

End of status report
TITLE "Jurassic World: Fallen Kingdom - Original Motion Picture Soundtrack"PERFORMER "Michael Giacchino"CATALOG 0859372007250REM GENRE "Soundtrack"REM DATE "2018"REM DISCNUMBER 1REM TOTALDISCS 1REM DISCID 4911C418REM REPLAYGAIN_ALBUM_GAIN -5.56 dBREM REPLAYGAIN_ALBUM_PEAK 0.998962FILE "01 Michael Giacchino - This Title Makes Me Jurassic.flac" WAVE TRACK 01 AUDIO TITLE "This Title Makes Me Jurassic" SONGWRITER "Michael Giacchino/Michael Giacchino,John Williams" ISRC USQ4E1803661 REM REPLAYGAIN_TRACK_GAIN -5.67 dB REM REPLAYGAIN_TRACK_PEAK 0.944397 INDEX 01 00:00:00 TRACK 02 AUDIO TITLE "The Theropod Preservation Society" SONGWRITER "Michael Giacchino/Michael Giacchino,John Williams" ISRC USQ4E1803662 REM REPLAYGAIN_TRACK_GAIN -3.26 dB REM REPLAYGAIN_TRACK_PEAK 0.944153 INDEX 00 02:54:00FILE "02 Michael Giacchino - The Theropod Preservation Society.flac" WAVE INDEX 01 00:00:00 TRACK 03 AUDIO TITLE "Maisie And The Island" SONGWRITER "Michael Giacchino/Michael Giacchino,John Williams" ISRC USQ4E1803663 REM REPLAYGAIN_TRACK_GAIN -5.33 dB REM REPLAYGAIN_TRACK_PEAK 0.945068 INDEX 00 03:47:20FILE "03 Michael Giacchino - Maisie And The Island.flac" WAVE INDEX 01 00:00:00 TRACK 04 AUDIO TITLE "March Of The Wheatley Cavalcade" SONGWRITER "Michael Giacchino/Michael Giacchino,John Williams" ISRC USQ4E1803664 REM REPLAYGAIN_TRACK_GAIN -5.27 dB REM REPLAYGAIN_TRACK_PEAK 0.987732 INDEX 00 02:07:48FILE "04 Michael Giacchino - March Of The Wheatley Cavalcade.flac" WAVE INDEX 01 00:00:00 TRACK 05 AUDIO TITLE "Nostalgia-Saurus" SONGWRITER "Michael Giacchino/Michael Giacchino,John Williams" ISRC USQ4E1803665 REM REPLAYGAIN_TRACK_GAIN -4.10 dB REM REPLAYGAIN_TRACK_PEAK 0.944122 INDEX 00 02:14:10FILE "05 Michael Giacchino - Nostalgia-Saurus.flac" WAVE INDEX 01 00:00:00 TRACK 06 AUDIO TITLE "Lava Land" SONGWRITER "Michael Giacchino/Michael Giacchino,John Williams" ISRC USQ4E1803667 REM REPLAYGAIN_TRACK_GAIN -5.70 dB REM REPLAYGAIN_TRACK_PEAK 0.949768 INDEX 00 01:05:30FILE "06 Michael Giacchino - Lava Land.flac" WAVE INDEX 01 00:00:00 TRACK 07 AUDIO TITLE "Keep Calm And Baryonyx" SONGWRITER "Michael Giacchino/Michael Giacchino,John Williams" ISRC USQ4E1803668 REM REPLAYGAIN_TRACK_GAIN -5.36 dB REM REPLAYGAIN_TRACK_PEAK 0.947174 INDEX 00 03:16:74FILE "07 Michael Giacchino - Keep Calm And Baryonyx.flac" WAVE INDEX 01 00:00:00 TRACK 08 AUDIO TITLE "Go With The Pyroclastic Flow" SONGWRITER "Michael Giacchino/Michael Giacchino,John Williams" ISRC USQ4E1803669 REM REPLAYGAIN_TRACK_GAIN -5.39 dB REM REPLAYGAIN_TRACK_PEAK 0.945831 INDEX 00 02:46:14FILE "08 Michael Giacchino - Go With The Pyroclastic Flow.flac" WAVE INDEX 01 00:00:00 TRACK 09 AUDIO TITLE "Raiders Of The Lost Isla Nublar" SONGWRITER "Michael Giacchino/Michael Giacchino,John Williams" ISRC USQ4E1803671 REM REPLAYGAIN_TRACK_GAIN -4.71 dB REM REPLAYGAIN_TRACK_PEAK 0.944977 INDEX 00 03:43:10FILE "09 Michael Giacchino - Raiders Of The Lost Isla Nublar.flac" WAVE INDEX 01 00:00:00 TRACK 10 AUDIO TITLE "Volcano To Death" SONGWRITER "Michael Giacchino/Michael Giacchino,John Williams" ISRC USQ4E1803672 REM REPLAYGAIN_TRACK_GAIN -6.20 dB REM REPLAYGAIN_TRACK_PEAK 0.944122 INDEX 00 03:20:64FILE "10 Michael Giacchino - Volcano To Death.flac" WAVE INDEX 01 00:00:00 TRACK 11 AUDIO TITLE "Operation Blue Blood" SONGWRITER "Michael Giacchino/Michael Giacchino,John Williams" ISRC USQ4E1803673 REM REPLAYGAIN_TRACK_GAIN 5.18 dB REM REPLAYGAIN_TRACK_PEAK 0.944031 INDEX 00 01:38:52FILE "11 Michael Giacchino - Operation Blue Blood.flac" WAVE INDEX 01 00:00:00 TRACK 12 AUDIO TITLE "Jurassic Pillow Talk" SONGWRITER "Michael Giacchino/Michael Giacchino,John Williams" ISRC USQ4E1803674 REM REPLAYGAIN_TRACK_GAIN -6.43 dB REM REPLAYGAIN_TRACK_PEAK 0.944794 INDEX 00 03:43:57FILE "12 Michael Giacchino - Jurassic Pillow Talk.flac" WAVE INDEX 01 00:00:00 TRACK 13 AUDIO TITLE "How To Pick A Lockwood" SONGWRITER "Michael Giacchino/Michael Giacchino,John Williams" ISRC USQ4E1803675 REM REPLAYGAIN_TRACK_GAIN 0.12 dB REM REPLAYGAIN_TRACK_PEAK 0.998962 INDEX 00 02:47:35FILE "13 Michael Giacchino - How To Pick A Lockwood.flac" WAVE INDEX 01 00:00:00 TRACK 14 AUDIO TITLE "Wilting Iris" SONGWRITER "Michael Giacchino/Michael Giacchino,John Williams" ISRC USQ4E1803676 REM REPLAYGAIN_TRACK_GAIN 7.76 dB REM REPLAYGAIN_TRACK_PEAK 0.411774 INDEX 00 03:10:28FILE "14 Michael Giacchino - Wilting Iris.flac" WAVE INDEX 01 00:00:00 TRACK 15 AUDIO TITLE "Shock And Auction" SONGWRITER "Michael Giacchino/Michael Giacchino,John Williams" ISRC USQ4E1803677 REM REPLAYGAIN_TRACK_GAIN -5.51 dB REM REPLAYGAIN_TRACK_PEAK 0.944672 INDEX 00 01:11:18FILE "15 Michael Giacchino - Shock And Auction.flac" WAVE INDEX 01 00:00:00 TRACK 16 AUDIO TITLE "Thus Begins The Indo-rapture" SONGWRITER "Michael Giacchino/Michael Giacchino,John Williams" ISRC USQ4E1803678 REM REPLAYGAIN_TRACK_GAIN -5.28 dB REM REPLAYGAIN_TRACK_PEAK 0.964935 INDEX 00 02:28:17FILE "16 Michael Giacchino - Thus Begins The Indo-rapture.flac" WAVE INDEX 01 00:00:00 TRACK 17 AUDIO TITLE "You Can Be So Hard-Headed" SONGWRITER "Michael Giacchino/Michael Giacchino,John Williams" ISRC USQ4E1803679 REM REPLAYGAIN_TRACK_GAIN -5.87 dB REM REPLAYGAIN_TRACK_PEAK 0.945618 INDEX 00 03:41:07FILE "17 Michael Giacchino - You Can Be So Hard-Headed.flac" WAVE INDEX 01 00:00:00 TRACK 18 AUDIO TITLE "Between The Devil And The Deep Blue Free" SONGWRITER "Michael Giacchino/Michael Giacchino,John Williams" ISRC USQ4E1803680 REM REPLAYGAIN_TRACK_GAIN -5.41 dB REM REPLAYGAIN_TRACK_PEAK 0.945312 INDEX 00 02:28:69FILE "18 Michael Giacchino - Between The Devil And The Deep Blue Free.flac" WAVE INDEX 01 00:00:00 TRACK 19 AUDIO TITLE "There's Something About Maisie" SONGWRITER "Michael Giacchino/Michael Giacchino,John Williams" ISRC USQ4E1803681 REM REPLAYGAIN_TRACK_GAIN -5.73 dB REM REPLAYGAIN_TRACK_PEAK 0.945740 INDEX 00 03:29:00FILE "19 Michael Giacchino - There's Something About Maisie.flac" WAVE INDEX 01 00:00:00 TRACK 20 AUDIO TITLE "World's Worst Bedtime Storyteller" SONGWRITER "Michael Giacchino/Michael Giacchino,John Williams" ISRC USQ4E1803682 REM REPLAYGAIN_TRACK_GAIN -7.52 dB REM REPLAYGAIN_TRACK_PEAK 0.946411 INDEX 00 01:20:45FILE "20 Michael Giacchino - World's Worst Bedtime Storyteller.flac" WAVE INDEX 01 00:00:00 TRACK 21 AUDIO TITLE "Declaration Of Indo-pendence" SONGWRITER "Michael Giacchino/Michael Giacchino,John Williams" ISRC USQ4E1803683 REM REPLAYGAIN_TRACK_GAIN -5.73 dB REM REPLAYGAIN_TRACK_PEAK 0.945953 INDEX 00 02:27:15FILE "21 Michael Giacchino - Declaration Of Indo-pendence.flac" WAVE INDEX 01 00:00:00 TRACK 22 AUDIO TITLE "To Free Or Not To Free" SONGWRITER "Michael Giacchino/Michael Giacchino,John Williams" ISRC USQ4E1803684 REM REPLAYGAIN_TRACK_GAIN -5.38 dB REM REPLAYGAIN_TRACK_PEAK 0.954468 INDEX 00 04:02:38FILE "22 Michael Giacchino - To Free Or Not To Free.flac" WAVE INDEX 01 00:00:00 TRACK 23 AUDIO TITLE "The Neo-Jurassic Age" SONGWRITER "Michael Giacchino/Michael Giacchino,John Williams" ISRC USQ4E1803685 REM REPLAYGAIN_TRACK_GAIN -6.99 dB REM REPLAYGAIN_TRACK_PEAK 0.955048 INDEX 00 03:00:67FILE "23 Michael Giacchino - The Neo-Jurassic Age.flac" WAVE INDEX 01 00:00:00 TRACK 24 AUDIO TITLE "At Jurassic World's End Credits\Suite" SONGWRITER "John Williams" ISRC USQ4E1803686 REM REPLAYGAIN_TRACK_GAIN -5.99 dB REM REPLAYGAIN_TRACK_PEAK 0.953003 INDEX 00 03:33:18FILE "24 Michael Giacchino - At Jurassic World's End Credits\Suite.flac" WAVE INDEX 01 00:00:00


Трекер:  [ 08-Июл-2018 04:36 ]

  

Скачать .torrent

Размер .torrent файла 19 KB


Размер: 400 MB
Хэш (hash) релиза: 4c827bde0fe30de94a830d11eeda8564025deea7

Еще никто не оставлял запись к записи скачать торрент Мир Юрского периода 2 Jurassic World: Fallen Kingdom . Будь первым!

!Обратная связь