Scene Release Rules | BDRipVF Diversion | Harry Potter: Hogwarts Mystery

Скачать через торрент Проделкин в школе Фильм бесплатно в хорошем качестве torrent

Скачивайте на UnionPeer.org фильмы через торрент без регистрации. Новинки кино в хорошем качестве через торрент. На UnionPeer.org можно скачать через торрент фильмы 2014 и 2015 годов. Самые новые фильмы.

Скачать торрент Проделкин в школе бесплатно через .torrent фильм мультфильм сериал

Статистика раздачи
Размер:  297 MB   |    Зарегистрирован:  14 дней   |    .torrent скачан:  21 раз   |   
Раздают:  1  
   
загрузка...
 
Автор Сообщение

Galfimbul

avatar Galfimbul


Проделкин в школе
Страна: СССР
Студия: Союзмультфильм
Жанр: мультфильм, детский
Год выпуска: 1974
Продолжительность: 00:09:39
Режиссеры: Анатолий Петров, Геннадий Сокольский, Валерий Угаров
Роли озвучивала: Мария Виноградова
Описание: Три сюжета об озорном школьнике-выдумщике Проделкине.
Релиз:
Семпл: http://sendfile.su/1429451
Тип релиза: VHSRip-AVC
Контейнер: MKV

Видео: 694x560 (4:3) @ 740x560, 25.000 fps, AVC, ~4018 Kbps, 0.413 bits/pixel
Аудио: Русский, 48.0 KHz, AC3, 1 ch, 192 kbps
GeneralUnique ID : 225303467869417562351350826115854003032 (0xA97FDE99CE72355234F70D3F23C46B58)Complete name : Проделкин в школе 1974 VHSRip RUTRACKER.mkvFormat : MatroskaFormat version : Version 4 / Version 2File size : 297 MiBDuration : 9 min 39 sOverall bit rate : 4 295 kb/sMovie name : Проделкин в школе 1974 VHSRip RUTRACKEREncoded date : UTC 2018-07-06 19:43:47Writing application : mkvmerge v24.0.0 ('Beyond The Pale') 64-bitWriting library : libebml v1.3.6 + libmatroska v1.4.9

VideoID : 1Format : AVCFormat/Info : Advanced Video CodecFormat profile : [email protected] settings : CABAC / 16 Ref FramesFormat settings, CABAC : YesFormat settings, RefFrames : 16 framesCodec ID : V_MPEG4/ISO/AVCDuration : 9 min 39 sBit rate : 4 101 kb/sWidth : 694 pixelsHeight : 560 pixelsDisplay aspect ratio : 4:3Original display aspect ratio : 4:3Frame rate mode : ConstantFrame rate : 25.000 FPSColor space : YUVChroma subsampling : 4:2:0Bit depth : 8 bitsScan type : ProgressiveBits/(Pixel*Frame) : 0.422Stream size : 284 MiB (95%)Writing library : x264 core 152 r2851kMod ba24899Encoding settings : cabac=1 / ref=16 / deblock=1:-3:-3 / analyse=0x3:0x133 / me=umh / subme=11 / psy=1 / fade_compensate=0.00 / psy_rd=1.00:0.00 / mixed_ref=1 / me_range=48 / chroma_me=1 / trellis=2 / 8x8dct=1 / cqm=0 / deadzone=21,11 / fast_pskip=0 / chroma_qp_offset=-2 / threads=12 / lookahead_threads=3 / sliced_threads=0 / nr=0 / decimate=1 / interlaced=0 / bluray_compat=0 / constrained_intra=0 / bframes=16 / b_pyramid=2 / b_adapt=2 / b_bias=0 / direct=3 / weightb=1 / open_gop=0 / weightp=0 / keyint=250 / keyint_min=25 / scenecut=40 / intra_refresh=0 / rc_lookahead=70 / rc=crf / mbtree=0 / crf=18.0000 / qcomp=0.60 / qpmin=0 / qpmax=69 / qpstep=4 / vbv_maxrate=50000 / vbv_bufsize=62500 / crf_max=0.0 / nal_hrd=none / filler=0 / ip_ratio=1.40 / pb_ratio=1.30 / aq=3:0.75Default : YesForced : NoColor range : LimitedColor primaries : BT.601 PALTransfer characteristics : BT.470 System B/GMatrix coefficients : BT.470 System B/G

AudioID : 2Format : AC-3Format/Info : Audio Coding 3Codec ID : A_AC3Duration : 9 min 39 sBit rate mode : ConstantBit rate : 192 kb/sChannel(s) : 1 channelChannel positions : Front: CSampling rate : 48.0 kHzFrame rate : 31.250 FPS (1536 SPF)Bit depth : 16 bitsCompression mode : LossyStream size : 13.3 MiB (4%)Service kind : Complete MainDefault : YesForced : No


Трекер:  [ 07-Июл-2018 15:30 ]

  

Скачать .torrent

Размер .torrent файла 12 KB


Размер: 297 MB
Хэш (hash) релиза: b3c234c0b15d4dcbd634b641088878ceb9db96fa
Подписка на обновления:

Торренты, похожие на Проделкин в школе скачать торрент

Форум Название Автор Размер S L Добавлен
Мультфильмы до 2016 ·· Проделкин в школе (Валерий Угаров, Анатолий Петров, Геннадий Сокольский) [1974, Рисованный мультфильм, DVDRip] Солнышко 137003558131 MB 0 0 1293304058

22:07

25-Дек-10

Еще никто не оставлял запись к записи скачать торрент Проделкин в школе . Будь первым!

!Обратная связь