Separation (2016) | Space Jam | Star Wars 4K 2160p UHD 35mm x265v1 0 DTOne 11 minutes

Скачать через торрент Легенда о старом маяке Фильм бесплатно в хорошем качестве torrent

Скачивайте на UnionPeer.org фильмы через торрент без регистрации. Новинки кино в хорошем качестве через торрент. На UnionPeer.org можно скачать через торрент фильмы 2014 и 2015 годов. Самые новые фильмы.

Скачать торрент Легенда о старом маяке бесплатно через .torrent фильм мультфильм сериал

Статистика раздачи
Размер:  612 MB   |    Зарегистрирован:  10 дней   |    .torrent скачан:  20 раз   |   
Раздают:  1  
   
загрузка...
 
Автор Сообщение

Galfimbul

avatar Galfimbul


Легенда о старом маяке
Страна: СССР
Студия: Союзмультфильм
Жанр: мультфильм, военный, приключения
Год выпуска: 1976
Продолжительность: 00:18:40
Режиссер: Витольд Бордзиловский
Роли озвучивали: Мария Виноградова, Гарри Бардин, Лидия Катаева, Тамара Дмитриева
Композитор: Александр Градский
Описание: Фильм посвящен патриотической теме - освобождению родной земли от фашистских захватчиков в период Великой Отечественной войны. В основе сюжета - приключения ребят, помогающих зажечь маяк, чтобы советские корабли вошли в бухту и разгромили гитлеровцев.
Релиз:
Семпл: http://sendfile.su/1429427
Тип релиза: VHSRip-AVC
Контейнер: MKV

Видео: 694x560 (4:3) @ 740x560, 25.000 fps, AVC, ~4011 Kbps, 0.413 bits/pixel
Аудио 1: Русский, 48.0 KHz, AC3, 1 ch, 192 kbps
Аудио 2: Русский, 48.0 KHz, FLAC, 1 ch, 382 kbps
GeneralUnique ID : 260676067950730433668735630048366028404 (0xC41C626EEDD7DD9FFE1D9AB0C685E674)Complete name : Легенда о старом маяке 1977 VHSRip RUTRACKER.mkvFormat : MatroskaFormat version : Version 4 / Version 2File size : 612 MiBDuration : 18 min 40 sOverall bit rate mode : VariableOverall bit rate : 4 586 kb/sMovie name : Легенда о старом маяке 1977 VHSRip RUTRACKEREncoded date : UTC 2018-07-04 17:53:40Writing application : mkvmerge v24.0.0 ('Beyond The Pale') 64-bitWriting library : libebml v1.3.6 + libmatroska v1.4.9

VideoID : 1Format : AVCFormat/Info : Advanced Video CodecFormat profile : [email protected] settings : CABAC / 16 Ref FramesFormat settings, CABAC : YesFormat settings, RefFrames : 16 framesCodec ID : V_MPEG4/ISO/AVCDuration : 18 min 40 sBit rate : 4 011 kb/sWidth : 694 pixelsHeight : 560 pixelsDisplay aspect ratio : 4:3Original display aspect ratio : 4:3Frame rate mode : ConstantFrame rate : 25.000 FPSColor space : YUVChroma subsampling : 4:2:0Bit depth : 8 bitsScan type : ProgressiveBits/(Pixel*Frame) : 0.413Stream size : 536 MiB (87%)Writing library : x264 core 152 r2851kMod ba24899Encoding settings : cabac=1 / ref=16 / deblock=1:-3:-3 / analyse=0x3:0x133 / me=umh / subme=11 / psy=1 / fade_compensate=0.00 / psy_rd=1.00:0.00 / mixed_ref=1 / me_range=48 / chroma_me=1 / trellis=2 / 8x8dct=1 / cqm=0 / deadzone=21,11 / fast_pskip=0 / chroma_qp_offset=-2 / threads=12 / lookahead_threads=3 / sliced_threads=0 / nr=0 / decimate=1 / interlaced=0 / bluray_compat=0 / constrained_intra=0 / bframes=16 / b_pyramid=2 / b_adapt=2 / b_bias=0 / direct=3 / weightb=1 / open_gop=0 / weightp=0 / keyint=250 / keyint_min=25 / scenecut=40 / intra_refresh=0 / rc_lookahead=70 / rc=crf / mbtree=0 / crf=20.0000 / qcomp=0.60 / qpmin=0 / qpmax=69 / qpstep=4 / vbv_maxrate=50000 / vbv_bufsize=62500 / crf_max=0.0 / nal_hrd=none / filler=0 / ip_ratio=1.40 / pb_ratio=1.30 / aq=3:0.75Default : YesForced : NoColor range : LimitedColor primaries : BT.601 PALTransfer characteristics : BT.470 System B/GMatrix coefficients : BT.470 System B/G

Audio #1ID : 2Format : AC-3Format/Info : Audio Coding 3Codec ID : A_AC3Duration : 18 min 40 sBit rate mode : ConstantBit rate : 192 kb/sChannel(s) : 1 channelChannel positions : Front: CSampling rate : 48.0 kHzFrame rate : 31.250 FPS (1536 SPF)Bit depth : 16 bitsCompression mode : LossyStream size : 25.6 MiB (4%)Language : RussianService kind : Complete MainDefault : YesForced : No

Audio #2ID : 3Format : FLACFormat/Info : Free Lossless Audio CodecCodec ID : A_FLACDuration : 18 min 40 sBit rate mode : VariableBit rate : 382 kb/sChannel(s) : 1 channelSampling rate : 48.0 kHzFrame rate : 11.719 FPS (4096 SPF)Bit depth : 16 bitsStream size : 50.9 MiB (8%)Writing library : libFLAC 1.2.1 (UTC 2007-09-17)Language : RussianDefault : NoForced : No


Трекер:  [ 07-Июл-2018 14:01 ]

  

Скачать .torrent

Размер .torrent файла 12 KB


Размер: 612 MB
Хэш (hash) релиза: 7257a424dee4c5793e8e42206dd8136081528190
Подписка на обновления:

Торренты, похожие на Легенда о старом маяке скачать торрент

Форум Название Автор Размер S L Добавлен
Мультфильмы до 2016 ·· Легенда о старом маяке. (Витольд Бордзиловский) [1977, СССР, Военно-патриотический, WEB-DLRip] Galfimbul 298211328284 MB 0 0 1456464243

08:24

26-Фев-16

Еще никто не оставлял запись к записи скачать торрент Легенда о старом маяке . Будь первым!

!Обратная связь