The Knick | Vedi tutte | Loosely Exactly Nicole

Скачать через торрент Моя жизнь Фильм бесплатно в хорошем качестве torrent

Скачивайте на UnionPeer.org фильмы через торрент без регистрации. Новинки кино в хорошем качестве через торрент. На UnionPeer.org можно скачать через торрент фильмы 2014 и 2015 годов. Самые новые фильмы.

Скачать торрент Моя жизнь бесплатно через .torrent фильм мультфильм сериал

 
Автор Сообщение

Galfimbul

avatar Galfimbul


Моя жизнь



[b]Год выхода:
2018
Жанр: драма, мелодрама
Режиссер: Алексей Луканев
В ролях: Алёна Бабенко, Павел Трубинер, Макар Запорожский, Анастасия Панина, Дмитрий Белоцерковский, Николай Чиндяйкин, Арсений Бурдонов, Диана Енакаева, Михаил Калинин, Егор Леонтьев

О фильме:
С самого детства главный герой влюбляется в футбол и мечтает стать великим футболистом, чтобы сыграть свой важнейший матч. Следуя своей мечте, ему приходится отказаться от любимой девушки и выбрать путь футболиста. И вот, когда остается один шаг до заветной мечты, судьба распоряжается по-другому. Мир перестает существовать, ведь он не только теряет возможность осуществить свою мечту, но и теряет своих родных, любимых людей.Как не сломаться, следовать своей мечте и вернуть свою любимую? Или она так и не смирится с его выбором стать футболистом?

Страна: Россия
Продолжительность: 01:34:45
Перевод: Не требуется

Файл
Кодек: H.264
Качество: WEB-DLRip-AVC / WEB-DL 1080p
Видео: MPEG-4 AVC, 960x400 (2.40:1), 25.000 fps, ~1769 kbps avg, 0.184 bit/pixel
Звук: 48 kHz, AC3 Dolby Digital, 3/2 (L,C,R,l,r) + LFE ch, ~384 kbps avg
Субтитры: Нет



Семпл
Complete name : D:РаздачаМоя жизнь (2018) WEB-DLRip-AVC_ivanes20031987.mkv
Format : Matroska
Format version : Version 2
File size : 1.45 GiB
Duration : 1 h 34 min
Overall bit rate : 2 197 kb/s
Movie name : Моя жизнь (2018) WEB-DLRip-AVC_ivanes20031987
Encoded date : UTC 2018-07-06 18:58:43
Writing application : mkvmerge v4.4.0 ('Die Wiederkehr') сборка от Jan 3 2011 21:40:45
Writing library : libebml v1.0.0 + libmatroska v1.0.0
Cover : Yes
Attachments : cover.jpg

Video
ID : 1
Format : AVC
Format/Info : Advanced Video Codec
Format profile : [email protected]
Format settings, CABAC : Yes
Format settings, RefFrames : 14 frames
Codec ID : V_MPEG4/ISO/AVC
Duration : 1 h 34 min
Bit rate : 1 769 kb/s
Width : 960 pixels
Height : 400 pixels
Display aspect ratio : 2.40:1
Frame rate mode : Constant
Frame rate : 25.000 FPS
Color space : YUV
Chroma subsampling : 4:2:0
Bit depth : 8 bits
Scan type : Progressive
Bits/(Pixel*Frame) : 0.184
Stream size : 1.17 GiB (81%)
Title : Rip by ivanes20031987
Writing library : x264 core 155 r2901 7d0ff22
Encoding settings : cabac=1 / ref=14 / deblock=1:-3:-3 / analyse=0x3:0x113 / me=umh / subme=10 / psy=1 / psy_rd=1.00:0.00 / mixed_ref=1 / me_range=32 / chroma_me=1 / trellis=2 / 8x8dct=1 / cqm=0 / deadzone=21,11 / fast_pskip=0 / chroma_qp_offset=-2 / threads=12 / lookahead_threads=3 / sliced_threads=0 / nr=0 / decimate=0 / interlaced=0 / bluray_compat=0 / constrained_intra=0 / bframes=14 / b_pyramid=2 / b_adapt=2 / b_bias=0 / direct=1 / weightb=1 / open_gop=0 / weightp=2 / keyint=250 / keyint_min=25 / scenecut=40 / intra_refresh=0 / rc_lookahead=60 / rc=crf / mbtree=0 / crf=18.1 / qcomp=0.60 / qpmin=0 / qpmax=69 / qpstep=4 / vbv_maxrate=50000 / vbv_bufsize=62500 / crf_max=0.0 / nal_hrd=none / filler=0 / ip_ratio=1.40 / pb_ratio=1.30 / aq=1:1.00
Default : Yes
Forced : No

Audio
ID : 2
Format : AC-3
Format/Info : Audio Coding 3
Format settings, Endianness : Big
Codec ID : A_AC3
Duration : 1 h 34 min
Bit rate mode : Constant
Bit rate : 384 kb/s
Channel(s) : 6 channels
Channel positions : Front: L C R, Side: L R, LFE
Sampling rate : 48.0 kHz
Frame rate : 31.250 FPS (1536 SPF)
Bit depth : 16 bits
Compression mode : Lossy
Stream size : 260 MiB (17%)
Language : Russian
Service kind : Complete Main
Default : Yes
Forced : No
Источник http://BlaTor.org

Еще никто не оставлял запись к записи скачать торрент Моя жизнь . Будь первым!

!Обратная связь