The Amazing Race Canada Season 6 Episode 11 s06e11 | Joe Simon (character created by: Captain America) | Flintstonowie / The Flintstones

Скачать через торрент [VIDEO] Звёздные войны: Пробуждение силы Star Wars: Episode VII - The Force Awakens бесплатно русская версия torrent активатор

Статистика раздачи
Размер:  2.05 GB   |    Зарегистрирован:  2 месяца 15 дней   |    .torrent скачан:  37 раз   |   
Раздают:  1  
   
загрузка...
 
Автор Сообщение

Galfimbul

avatar Galfimbul


Звёздные войны: Пробуждение силы / Star Wars: Episode VII - The Force Awakens
[Оригинальный видеоряд]

Год выпуска: 2015
Страна: США
Жанр: фантастика, фэнтези, боевик, приключения
Продолжительность: 02:18:06
Перевод №1: русский Профессиональный (полное дублирование) Blu-ray EUR
Перевод №2: русский Профессиональный (многоголосый, закадровый) FocusStudio
Перевод №3: русский Авторский (одноголосый, закадровый) Живов
Оригинальная дорожка: Есть
Субтитры: русские (Forced (речь дроидов и пришельцев)), (Forced (речь только пришельцев)), (Full (R5 + речь дроидов и пришельцев)), (Full (R5)), английские (Forced), (Full), (SDH), (SDH-Colored)
Режиссер: Джей Джей Абрамс / J.J. Abrams
В ролях: Джон Бойега, Дэйзи Ридли, Оскар Айзек, Адам Драйвер, Донал Глисон, Харрисон Форд, Марк Хэмилл, Кэрри Фишер, Макс фон Сюдов и другие .
Описание: Через тридцать лет после гибели Дарта Вейдера и Императора галактика по-прежнему в опасности. Государственное образование Первый Орден во главе с таинственным верховным лидером Сноуком и его правой рукой Кайло Реном идёт по стопам Империи, пытаясь захватить всю власть. В это нелёгкое время судьба сводит юную девушку Рей и бывшего штурмовика Первого Ордена Финна с героями войны с Империей — Ханом Соло, Чубаккой и генералом Леей. Вместе они должны дать бой Первому Ордену, однако настаёт тот момент, когда становится очевидно, что лишь джедаи могут остановить Сноука и Кайло Рена .
Релиз группы

Качество: BDRip / рип с Blu-ray disc 1080p [EUR]
Формат: MP4
Видео кодек: H.264
Аудио кодек: AAC
Видео: 960x400 AR:2.40 1600 kbps 23.976 fps
Аудио №1: [Russian] 2ch 48 kHz 128 kbps - [Dub] Профессиональный (полное дублирование) Blu-ray EUR
Аудио №2: [Russian] 2ch 48 kHz 128 kbps - [MVO] Профессиональный (многоголосый, закадровый) FocusStudio
Аудио №3: [Russian] 2ch 48 kHz 128 kbps - [VO] Авторский (одноголосый, закадровый) Живов
Аудио №4: [English] 2ch 48 kHz 128 kbps - Original
avs [info]: 960x400p 1:1 @ 24000/1001 fps (cfr)
x264 [info]: using SAR=1/1
x264 [info]: using cpu capabilities: MMX2 SSE2Fast SSSE3 SSE4.2 AVX FMA3 BMI2 AVX2
x264 [info]: profile High, level 4.1

x264 [info]: frame I:1663 Avg QP:16.08 size: 53795
x264 [info]: frame P:50879 Avg QP:19.89 size: 16232
x264 [info]: frame B:146140 Avg QP:21.84 size: 5076
x264 [info]: consecutive B-frames: 4.6% 4.7% 13.6% 23.2% 16.5% 26.7% 6.4% 1.8% 1.6% 1.1%
x264 [info]: mb I I16..4: 5.3% 72.6% 22.1%
x264 [info]: mb P I16..4: 1.1% 9.0% 1.7% P16..4: 33.9% 37.8% 11.1% 0.0% 0.0% skip: 5.3%
x264 [info]: mb B I16..4: 0.1% 0.9% 0.2% B16..8: 36.0% 19.0% 3.0% direct: 4.5% skip:36.4% L0:43.5% L1:44.8% BI:11.7%
x264 [info]: 8x8 transform intra:75.7% inter:60.8%
x264 [info]: direct mvs spatial:97.3% temporal:2.7%
x264 [info]: coded y,uvDC,uvAC intra: 84.2% 82.9% 57.0% inter: 21.8% 19.8% 8.2%
x264 [info]: i16 v,h,dc,p: 14% 15% 6% 65%
x264 [info]: i8 v,h,dc,ddl,ddr,vr,hd,vl,hu: 6% 6% 5% 11% 16% 15% 15% 12% 14%
x264 [info]: i4 v,h,dc,ddl,ddr,vr,hd,vl,hu: 7% 7% 4% 10% 16% 15% 15% 11% 15%
x264 [info]: i8c dc,h,v,p: 38% 24% 17% 22%
x264 [info]: Weighted P-Frames: Y:16.5% UV:11.9%
x264 [info]: ref P L0: 49.6% 10.4% 16.5% 6.2% 4.7% 3.5% 3.4% 2.1% 1.7% 1.5% 0.3% 0.1%
x264 [info]: ref B L0: 76.8% 10.1% 4.9% 2.4% 1.6% 1.4% 1.5% 0.9% 0.3%
x264 [info]: ref B L1: 95.1% 4.9%
x264 [info]: kb/s:1599.79

encoded 198682 frames, 16.01 fps, 1599.79 kb/s
GeneralComplete name : M:\mobile\Star Wars Episode VII - The Force Awakens.2015.BDRip.x264.960x.rip by Frost O.S.mp4Format : MPEG-4Format profile : 3GPP Release 6 GeneralCodec ID : 3gg6 (isom/3gg6/mp42)File size : 2.05 GiBDuration : 2 h 18 minOverall bit rate mode : VariableOverall bit rate : 2 121 kb/sEncoded date : UTC 2018-07-06 17:35:34Tagged date : UTC 2018-07-06 17:35:34

VideoID : 1Format : AVCFormat/Info : Advanced Video CodecFormat profile : [email protected] settings : CABAC / 10 Ref FramesFormat settings, CABAC : YesFormat settings, RefFrames : 10 framesCodec ID : avc1Codec ID/Info : Advanced Video CodingDuration : 2 h 18 minBit rate : 1 600 kb/sMaximum bit rate : 6 732 kb/sWidth : 960 pixelsHeight : 400 pixelsDisplay aspect ratio : 2.40:1Frame rate mode : ConstantFrame rate : 23.976 (24000/1001) FPSColor space : YUVChroma subsampling : 4:2:0Bit depth : 8 bitsScan type : ProgressiveBits/(Pixel*Frame) : 0.174Stream size : 1.54 GiB (75%)Writing library : x264 core 152 r2851 ba24899Encoding settings : cabac=1 / ref=10 / deblock=1:-2:-2 / analyse=0x3:0x113 / me=umh / subme=11 / psy=1 / psy_rd=1.00:0.00 / mixed_ref=1 / me_range=32 / chroma_me=1 / trellis=2 / 8x8dct=1 / cqm=0 / deadzone=21,11 / fast_pskip=0 / chroma_qp_offset=-2 / threads=6 / lookahead_threads=1 / sliced_threads=0 / nr=0 / decimate=0 / interlaced=0 / bluray_compat=0 / constrained_intra=0 / bframes=9 / b_pyramid=2 / b_adapt=2 / b_bias=0 / direct=3 / weightb=1 / open_gop=0 / weightp=2 / keyint=250 / keyint_min=23 / scenecut=40 / intra_refresh=0 / rc=2pass / mbtree=0 / bitrate=1600 / ratetol=1.0 / qcomp=0.70 / qpmin=0 / qpmax=69 / qpstep=4 / cplxblur=20.0 / qblur=0.5 / ip_ratio=1.40 / pb_ratio=1.30 / aq=2:0.90Encoded date : UTC 2018-07-04 05:34:10Tagged date : UTC 2018-07-06 17:36:18Color range : LimitedColor primaries : BT.709Transfer characteristics : BT.709Matrix coefficients : BT.709

Audio #1ID : 2Format : AACFormat/Info : Advanced Audio CodecFormat profile : LCCodec ID : mp4a-40-2Duration : 2 h 18 minBit rate mode : VariableBit rate : 128 kb/sMaximum bit rate : 136 kb/sChannel(s) : 2 channelsChannel positions : Front: L RSampling rate : 48.0 kHzFrame rate : 46.875 FPS (1024 SPF)Compression mode : LossyStream size : 126 MiB (6%)Title : Russian / Dub, Blu-ray EUREncoded date : UTC 2018-07-06 15:52:59Tagged date : UTC 2018-07-06 17:36:18

Audio #2ID : 4Format : AACFormat/Info : Advanced Audio CodecFormat profile : LCCodec ID : mp4a-40-2Duration : 2 h 18 minBit rate mode : VariableBit rate : 128 kb/sMaximum bit rate : 134 kb/sChannel(s) : 2 channelsChannel positions : Front: L RSampling rate : 48.0 kHzFrame rate : 46.875 FPS (1024 SPF)Compression mode : LossyStream size : 126 MiB (6%)Title : Russian / MVO, FocusStudioEncoded date : UTC 2018-07-06 15:47:43Tagged date : UTC 2018-07-06 17:36:18

Audio #3ID : 5Format : AACFormat/Info : Advanced Audio CodecFormat profile : LCCodec ID : mp4a-40-2Duration : 2 h 18 minBit rate mode : VariableBit rate : 128 kb/sMaximum bit rate : 136 kb/sChannel(s) : 2 channelsChannel positions : Front: L RSampling rate : 48.0 kHzFrame rate : 46.875 FPS (1024 SPF)Compression mode : LossyStream size : 126 MiB (6%)Title : Russian / VO, ZhuvovEncoded date : UTC 2018-07-06 16:42:41Tagged date : UTC 2018-07-06 17:36:18

Audio #4ID : 6Format : AACFormat/Info : Advanced Audio CodecFormat profile : LCCodec ID : mp4a-40-2Duration : 2 h 18 minBit rate mode : VariableBit rate : 128 kb/sMaximum bit rate : 135 kb/sChannel(s) : 2 channelsChannel positions : Front: L RSampling rate : 48.0 kHzFrame rate : 46.875 FPS (1024 SPF)Compression mode : LossyStream size : 126 MiB (6%)Title : English / OriginalEncoded date : UTC 2018-07-06 15:57:12Tagged date : UTC 2018-07-06 17:36:18

Text #1ID : 7Format : Timed TextCodec ID : tx3gDuration : 2 h 4 minBit rate mode : VariableBit rate : 5 b/sStream size : 5.00 KiB (0%)Title : Russian / Forced (rech_droidov_i_prishelcev)Forced : NoEncoded date : UTC 2018-07-06 17:11:16Tagged date : UTC 2018-07-06 17:36:18

Text #2ID : 8Format : Timed TextCodec ID : tx3gDuration : 58 min 44 sBit rate mode : VariableBit rate : 1 b/sStream size : 341 Bytes (0%)Title : Russian / Forced (rech_tolko_prishelcev)Forced : NoEncoded date : UTC 2018-07-06 17:11:16Tagged date : UTC 2018-07-06 17:36:18

Text #3ID : 9Format : Timed TextCodec ID : tx3gDuration : 2 h 4 minBit rate mode : VariableBit rate : 79 b/sStream size : 72.3 KiB (0%)Title : Russian / Full R5 plus (rech_droidov_i_prishelcev)Forced : NoEncoded date : UTC 2018-07-06 17:11:16Tagged date : UTC 2018-07-06 17:36:18

Text #4ID : 10Format : Timed TextCodec ID : tx3gDuration : 2 h 3 minBit rate mode : VariableBit rate : 74 b/sStream size : 66.6 KiB (0%)Title : Russian / Full R5Forced : NoEncoded date : UTC 2018-07-06 17:11:16Tagged date : UTC 2018-07-06 17:36:18

Text #5ID : 11Format : Timed TextCodec ID : tx3gDuration : 1 min 15 sBit rate mode : VariableBit rate : 69 b/sStream size : 652 Bytes (0%)Title : English / ForcedForced : NoEncoded date : UTC 2018-07-06 17:11:16Tagged date : UTC 2018-07-06 17:36:18

Text #6ID : 12Format : Timed TextCodec ID : tx3gDuration : 2 h 3 minBit rate mode : VariableBit rate : 46 b/sStream size : 41.7 KiB (0%)Title : English / FullForced : NoEncoded date : UTC 2018-07-06 17:11:16Tagged date : UTC 2018-07-06 17:36:18

Text #7ID : 13Format : Timed TextCodec ID : tx3gDuration : 2 h 9 minBit rate mode : VariableBit rate : 57 b/sStream size : 54.2 KiB (0%)Title : English / SDHForced : NoEncoded date : UTC 2018-07-06 17:11:16Tagged date : UTC 2018-07-06 17:36:18

Text #8ID : 14Format : Timed TextCodec ID : tx3gDuration : 2 h 9 minBit rate mode : VariableBit rate : 78 b/sStream size : 73.6 KiB (0%)Title : English / SDH ColoredForced : NoEncoded date : UTC 2018-07-06 17:11:16Tagged date : UTC 2018-07-06 17:36:18


Трекер:  [ 06-Июл-2018 22:36 ]

  

Скачать .torrent

Размер .torrent файла 10 KB


Размер: 2.05 GB
Хэш (hash) релиза: e97f4f7f287055e5f8b11dab5e8bf9db912f8d06

Торренты, похожие на [VIDEO] Звёздные войны: Пробуждение силы Star Wars: Episode VII - The Force Awakens скачать торрент

Форум Название Автор Размер S L Добавлен
Видео (Фильмы/Клипы) ·%· [VIDEO] Звёздные войны: Пробуждение силы / Star Wars: Episode VII - The Force Awakens (Джей Джей Абрамс / J.J. Abrams) [2015, фантастика, фэнтези, боевик, приключения, BDRip] [3GP, 320x] [Локализированный видеоряд] Galfimbul 497901784475 MB 0 0 1530905801

22:36

6-Июл-18

Видео (Фильмы/Клипы) ·%· [VIDEO] Звёздные войны: Пробуждение силы / Star Wars: Episode VII - The Force Awakens (Джей Джей Абрамс / J.J. Abrams) [2015, фантастика, фэнтези, боевик, приключения, BDRip] [MP4, 480x] [Локализированный видеоряд] Galfimbul 652981857623 MB 0 0 1530905784

22:36

6-Июл-18

Видео (Фильмы/Клипы) ·%· [VIDEO] Звёздные войны: Пробуждение силы / Star Wars: Episode VII - The Force Awakens (Джей Джей Абрамс / J.J. Abrams) [2015, фантастика, фэнтези, боевик, приключения, BDRip] [MP4, 1280x] [Локализированный видеоряд] Galfimbul 35438284443.3 GB 0 0 1530903988

22:06

6-Июл-18

Видео (Фильмы/Клипы) ·%· [VIDEO] Звёздные войны: Пробуждение силы / Star Wars: Episode VII - The Force Awakens (Джей Джей Абрамс / J.J. Abrams) [2015, фантастика, фэнтези, боевик, приключения, BDRip] [MP4, 960x] [Локализированный видеоряд] Galfimbul 21974974502.05 GB 0 0 1530903978

22:06

6-Июл-18

Еще никто не оставлял запись к записи скачать торрент [VIDEO] Звёздные войны: Пробуждение силы Star Wars: Episode VII - The Force Awakens . Будь первым!

!Обратная связь