Lakshyam (2017) Malayalam Action Movie DVDRip 700MB ESub | S1 03 Charm Attack, Veteran Mercenary | RAI Sport 1 en direct

Скачать через торрент [VIDEO] Звёздные войны: Пробуждение силы Star Wars: Episode VII - The Force Awakens бесплатно русская версия torrent активатор

Статистика раздачи
Размер:  623 MB   |    Зарегистрирован:  11 дней   |    .torrent скачан:  35 раз   |   
Раздают:  1  
   
загрузка...
 
Автор Сообщение

Galfimbul

avatar Galfimbul


Звёздные войны: Пробуждение силы / Star Wars: Episode VII - The Force Awakens
[Локализированный видеоряд]

Год выпуска: 2015
Страна: США
Жанр: фантастика, фэнтези, боевик, приключения
Продолжительность: 02:18:06
Перевод: русский Профессиональный (полное дублирование) Blu-ray EUR
Субтитры: нет
Режиссер: Джей Джей Абрамс / J.J. Abrams
В ролях: Джон Бойега, Дэйзи Ридли, Оскар Айзек, Адам Драйвер, Донал Глисон, Харрисон Форд, Марк Хэмилл, Кэрри Фишер, Макс фон Сюдов и другие .
Описание: Через тридцать лет после гибели Дарта Вейдера и Императора галактика по-прежнему в опасности. Государственное образование Первый Орден во главе с таинственным верховным лидером Сноуком и его правой рукой Кайло Реном идёт по стопам Империи, пытаясь захватить всю власть. В это нелёгкое время судьба сводит юную девушку Рей и бывшего штурмовика Первого Ордена Финна с героями войны с Империей — Ханом Соло, Чубаккой и генералом Леей. Вместе они должны дать бой Первому Ордену, однако настаёт тот момент, когда становится очевидно, что лишь джедаи могут остановить Сноука и Кайло Рена .
Релиз группы

Качество: BDRip / рип с Blu-ray disc 1080p [EUR]
Формат: MP4
Видео кодек: XviD
Аудио кодек: AAC
Видео: 480x200 AR:2.40 499 kbps 23.976 fps
Аудио: [Russian] 2ch 48 kHz 128 kbps - [Dub] Профессиональный (полное дублирование) Blu-ray EUR
GeneralComplete name : K:\Torrents\Star Wars Episode VII - The Force Awakens.(Lokalizovannuy videoryad).2015.XviD.480x.rip by Frost O.S.mp4Format : MPEG-4Format profile : 3GPP Media Release 5Codec ID : 3gp5 (isom/3gp5/3gp4/mp41/mp42)File size : 623 MiBDuration : 2 h 18 minOverall bit rate mode : VariableOverall bit rate : 630 kb/sEncoded date : UTC 2018-07-06 17:20:30Tagged date : UTC 2018-07-06 17:20:30

VideoID : 1Format : MPEG-4 VisualFormat profile : Advanced [email protected] settings : BVOP / Custom MatrixFormat settings, BVOP : YesFormat settings, QPel : NoFormat settings, GMC : No warppointsFormat settings, Matrix : CustomCodec ID : mp4v-20Duration : 2 h 18 minBit rate mode : VariableBit rate : 499 kb/sMaximum bit rate : 3 572 kb/sWidth : 480 pixelsHeight : 200 pixelsDisplay aspect ratio : 2.40:1Frame rate mode : ConstantFrame rate : 23.976 (24000/1001) FPSColor space : YUVChroma subsampling : 4:2:0Bit depth : 8 bitsScan type : ProgressiveCompression mode : LossyBits/(Pixel*Frame) : 0.217Stream size : 493 MiB (79%)Title : [email protected]-DEV-rev248-g39d5978-masterWriting library : XviD 1.2.1 (UTC 2008-12-04)Encoded date : UTC 2018-07-04 21:56:16Tagged date : UTC 2018-07-06 17:20:35

AudioID : 2Format : AACFormat/Info : Advanced Audio CodecFormat profile : LCCodec ID : mp4a-40-2Duration : 2 h 18 minBit rate mode : VariableBit rate : 128 kb/sMaximum bit rate : 136 kb/sChannel(s) : 2 channelsChannel positions : Front: L RSampling rate : 48.0 kHzFrame rate : 46.875 FPS (1024 SPF)Compression mode : LossyStream size : 126 MiB (20%)Title : Russian / Dub, Blu-ray EUREncoded date : UTC 2018-07-06 16:17:57Tagged date : UTC 2018-07-06 17:20:35


Трекер:  [ 06-Июл-2018 22:36 ]

  

Скачать .torrent

Размер .torrent файла 12 KB


Размер: 623 MB
Хэш (hash) релиза: 585f42d7ec35f7ba24ac274ecb33aead312536a1

Торренты, похожие на [VIDEO] Звёздные войны: Пробуждение силы Star Wars: Episode VII - The Force Awakens скачать торрент

Форум Название Автор Размер S L Добавлен
Видео (Фильмы/Клипы) ·%· [VIDEO] Звёздные войны: Пробуждение силы / Star Wars: Episode VII - The Force Awakens (Джей Джей Абрамс / J.J. Abrams) [2015, фантастика, фэнтези, боевик, приключения, BDRip] [3GP, 320x] [Локализированный видеоряд] Galfimbul 497901784475 MB 0 0 1530905801

22:36

6-Июл-18

Видео (Фильмы/Клипы) ·%· [VIDEO] Звёздные войны: Пробуждение силы / Star Wars: Episode VII - The Force Awakens (Джей Джей Абрамс / J.J. Abrams) [2015, фантастика, фэнтези, боевик, приключения, BDRip] [MP4, 960x] [Оригинальный видеоряд] Galfimbul 21974839812.05 GB 0 0 1530905792

22:36

6-Июл-18

Видео (Фильмы/Клипы) ·%· [VIDEO] Звёздные войны: Пробуждение силы / Star Wars: Episode VII - The Force Awakens (Джей Джей Абрамс / J.J. Abrams) [2015, фантастика, фэнтези, боевик, приключения, BDRip] [MP4, 1280x] [Локализированный видеоряд] Galfimbul 35438284443.3 GB 0 0 1530903988

22:06

6-Июл-18

Видео (Фильмы/Клипы) ·%· [VIDEO] Звёздные войны: Пробуждение силы / Star Wars: Episode VII - The Force Awakens (Джей Джей Абрамс / J.J. Abrams) [2015, фантастика, фэнтези, боевик, приключения, BDRip] [MP4, 960x] [Локализированный видеоряд] Galfimbul 21974974502.05 GB 0 0 1530903978

22:06

6-Июл-18

Еще никто не оставлял запись к записи скачать торрент [VIDEO] Звёздные войны: Пробуждение силы Star Wars: Episode VII - The Force Awakens . Будь первым!

!Обратная связь