Download Portugal. The Man - Purple Yellow Red Blue mp3 | Vice Principals | Il bosco di Mila

Скачать через торрент [VIDEO] Звёздные войны: Пробуждение силы Star Wars: Episode VII - The Force Awakens бесплатно русская версия torrent активатор

Статистика раздачи
Размер:  3.3 GB   |    Зарегистрирован:  11 дней   |    .torrent скачан:  35 раз   |   
Раздают:  1  
   
загрузка...
 
Автор Сообщение

Galfimbul

avatar Galfimbul


Звёздные войны: Пробуждение силы / Star Wars: Episode VII - The Force Awakens
[Локализированный видеоряд]

Год выпуска: 2015
Страна: США
Жанр: фантастика, фэнтези, боевик, приключения
Продолжительность: 02:18:06
Перевод №1: русский Профессиональный (полное дублирование) Blu-ray EUR
Перевод №2: русский Профессиональный (многоголосый, закадровый) FocusStudio
Перевод №3: русский Авторский (одноголосый, закадровый) Живов
Оригинальная дорожка: Есть
Субтитры: русские (Forced (речь дроидов и пришельцев)), (Forced (речь только пришельцев)), (Full (R5 + речь дроидов и пришельцев)), (Full (R5)), английские (Forced), (Full), (SDH), (SDH-Colored)
Режиссер: Джей Джей Абрамс / J.J. Abrams
В ролях: Джон Бойега, Дэйзи Ридли, Оскар Айзек, Адам Драйвер, Донал Глисон, Харрисон Форд, Марк Хэмилл, Кэрри Фишер, Макс фон Сюдов и другие .
Описание: Через тридцать лет после гибели Дарта Вейдера и Императора галактика по-прежнему в опасности. Государственное образование Первый Орден во главе с таинственным верховным лидером Сноуком и его правой рукой Кайло Реном идёт по стопам Империи, пытаясь захватить всю власть. В это нелёгкое время судьба сводит юную девушку Рей и бывшего штурмовика Первого Ордена Финна с героями войны с Империей — Ханом Соло, Чубаккой и генералом Леей. Вместе они должны дать бой Первому Ордену, однако настаёт тот момент, когда становится очевидно, что лишь джедаи могут остановить Сноука и Кайло Рена .
Релиз группы

Качество: BDRip / рип с Blu-ray disc 1080p [EUR]
Формат: MP4
Видео кодек: H.264
Аудио кодек: AAC
Видео: 1280x532 AR:2.41 2900 kbps 23.976 fps
Аудио №1: [Russian] 2ch 48 kHz 128 kbps - [Dub] Профессиональный (полное дублирование) Blu-ray EUR
Аудио №2: [Russian] 2ch 48 kHz 128 kbps - [MVO] Профессиональный (многоголосый, закадровый) FocusStudio
Аудио №3: [Russian] 2ch 48 kHz 128 kbps - [VO] Авторский (одноголосый, закадровый) Живов
Аудио №4: [English] 2ch 48 kHz 128 kbps - Original
avs [info]: 1280x532p 1:1 @ 24000/1001 fps (cfr)
x264 [info]: using SAR=1/1
x264 [info]: using cpu capabilities: MMX2 SSE2Fast SSSE3 SSE4.2 AVX FMA3 BMI2 AVX2
x264 [info]: profile High, level 4.1

x264 [info]: frame I:1534 Avg QP:16.74 size: 87759
x264 [info]: frame P:52825 Avg QP:20.48 size: 26538
x264 [info]: frame B:144323 Avg QP:21.55 size: 10165
x264 [info]: consecutive B-frames: 4.9% 8.4% 12.1% 18.9% 15.9% 31.2% 5.7% 1.3% 1.0% 0.7%
x264 [info]: mb I I16..4: 5.4% 76.9% 17.8%
x264 [info]: mb P I16..4: 1.2% 8.9% 1.6% P16..4: 35.3% 38.5% 9.5% 0.0% 0.0% skip: 5.1%
x264 [info]: mb B I16..4: 0.1% 1.0% 0.2% B16..8: 38.7% 19.8% 2.8% direct: 4.7% skip:32.8% L0:45.5% L1:45.4% BI: 9.0%
x264 [info]: 8x8 transform intra:76.5% inter:63.9%
x264 [info]: direct mvs spatial:97.4% temporal:2.6%
x264 [info]: coded y,uvDC,uvAC intra: 82.1% 82.8% 56.0% inter: 24.7% 24.0% 9.3%
x264 [info]: i16 v,h,dc,p: 16% 15% 5% 65%
x264 [info]: i8 v,h,dc,ddl,ddr,vr,hd,vl,hu: 9% 6% 5% 11% 16% 14% 15% 12% 12%
x264 [info]: i4 v,h,dc,ddl,ddr,vr,hd,vl,hu: 22% 6% 4% 8% 14% 12% 13% 9% 11%
x264 [info]: i8c dc,h,v,p: 35% 24% 18% 23%
x264 [info]: Weighted P-Frames: Y:16.0% UV:12.0%
x264 [info]: ref P L0: 47.7% 9.3% 18.2% 6.7% 5.5% 4.3% 3.6% 2.1% 2.0% 0.4% 0.1%
x264 [info]: ref B L0: 73.6% 11.3% 6.3% 2.9% 2.7% 1.8% 1.1% 0.3%
x264 [info]: ref B L1: 94.8% 5.2%
x264 [info]: kb/s:2899.55

encoded 198682 frames, 9.11 fps, 2899.56 kb/s
GeneralComplete name : M:\mobile\Star Wars Episode VII - The Force Awakens.(Lokalizovannuy videoryad).2015.x264.1280x.rip by Frost O.S.mp4Format : MPEG-4Format profile : 3GPP Release 6 GeneralCodec ID : 3gg6 (isom/3gg6/mp42)File size : 3.30 GiBDuration : 2 h 18 minOverall bit rate mode : VariableOverall bit rate : 3 421 kb/sEncoded date : UTC 2018-07-06 17:40:29Tagged date : UTC 2018-07-06 17:40:29

VideoID : 1Format : AVCFormat/Info : Advanced Video CodecFormat profile : [email protected] settings : CABAC / 9 Ref FramesFormat settings, CABAC : YesFormat settings, RefFrames : 9 framesCodec ID : avc1Codec ID/Info : Advanced Video CodingDuration : 2 h 18 minBit rate : 2 900 kb/sMaximum bit rate : 10.1 Mb/sWidth : 1 280 pixelsHeight : 532 pixelsDisplay aspect ratio : 2.40:1Frame rate mode : ConstantFrame rate : 23.976 (24000/1001) FPSColor space : YUVChroma subsampling : 4:2:0Bit depth : 8 bitsScan type : ProgressiveBits/(Pixel*Frame) : 0.178Stream size : 2.80 GiB (85%)Writing library : x264 core 152 r2851 ba24899Encoding settings : cabac=1 / ref=9 / deblock=1:-2:-1 / analyse=0x3:0x113 / me=umh / subme=11 / psy=1 / psy_rd=1.00:0.00 / mixed_ref=1 / me_range=32 / chroma_me=1 / trellis=2 / 8x8dct=1 / cqm=0 / deadzone=21,11 / fast_pskip=0 / chroma_qp_offset=-2 / threads=6 / lookahead_threads=1 / sliced_threads=0 / nr=0 / decimate=0 / interlaced=0 / bluray_compat=0 / constrained_intra=0 / bframes=9 / b_pyramid=2 / b_adapt=2 / b_bias=0 / direct=3 / weightb=1 / open_gop=0 / weightp=2 / keyint=250 / keyint_min=23 / scenecut=40 / intra_refresh=0 / rc=2pass / mbtree=0 / bitrate=2900 / ratetol=1.0 / qcomp=0.70 / qpmin=0 / qpmax=69 / qpstep=4 / cplxblur=20.0 / qblur=0.5 / ip_ratio=1.40 / pb_ratio=1.20 / aq=2:0.90Encoded date : UTC 2018-07-04 13:42:01Tagged date : UTC 2018-07-06 17:41:40Color range : LimitedColor primaries : BT.709Transfer characteristics : BT.709Matrix coefficients : BT.709

Audio #1ID : 2Format : AACFormat/Info : Advanced Audio CodecFormat profile : LCCodec ID : mp4a-40-2Duration : 2 h 18 minBit rate mode : VariableBit rate : 128 kb/sMaximum bit rate : 136 kb/sChannel(s) : 2 channelsChannel positions : Front: L RSampling rate : 48.0 kHzFrame rate : 46.875 FPS (1024 SPF)Compression mode : LossyStream size : 126 MiB (4%)Title : Russian / Dub, Blu-ray EUREncoded date : UTC 2018-07-06 16:17:57Tagged date : UTC 2018-07-06 17:41:40

Audio #2ID : 4Format : AACFormat/Info : Advanced Audio CodecFormat profile : LCCodec ID : mp4a-40-2Duration : 2 h 18 minBit rate mode : VariableBit rate : 128 kb/sMaximum bit rate : 134 kb/sChannel(s) : 2 channelsChannel positions : Front: L RSampling rate : 48.0 kHzFrame rate : 46.875 FPS (1024 SPF)Compression mode : LossyStream size : 126 MiB (4%)Title : Russian / MVO, FocusStudioEncoded date : UTC 2018-07-06 15:47:43Tagged date : UTC 2018-07-06 17:41:40

Audio #3ID : 5Format : AACFormat/Info : Advanced Audio CodecFormat profile : LCCodec ID : mp4a-40-2Duration : 2 h 18 minBit rate mode : VariableBit rate : 128 kb/sMaximum bit rate : 136 kb/sChannel(s) : 2 channelsChannel positions : Front: L RSampling rate : 48.0 kHzFrame rate : 46.875 FPS (1024 SPF)Compression mode : LossyStream size : 126 MiB (4%)Title : Russian / VO, ZhuvovEncoded date : UTC 2018-07-06 16:42:41Tagged date : UTC 2018-07-06 17:41:40

Audio #4ID : 6Format : AACFormat/Info : Advanced Audio CodecFormat profile : LCCodec ID : mp4a-40-2Duration : 2 h 18 minBit rate mode : VariableBit rate : 128 kb/sMaximum bit rate : 135 kb/sChannel(s) : 2 channelsChannel positions : Front: L RSampling rate : 48.0 kHzFrame rate : 46.875 FPS (1024 SPF)Compression mode : LossyStream size : 126 MiB (4%)Title : English / OriginalEncoded date : UTC 2018-07-06 16:01:53Tagged date : UTC 2018-07-06 17:41:40

Text #1ID : 7Format : Timed TextCodec ID : tx3gDuration : 2 h 4 minBit rate mode : VariableBit rate : 5 b/sStream size : 5.00 KiB (0%)Title : Russian / Forced (rech_droidov_i_prishelcev)Forced : NoEncoded date : UTC 2018-07-06 17:04:33Tagged date : UTC 2018-07-06 17:41:40

Text #2ID : 8Format : Timed TextCodec ID : tx3gDuration : 58 min 44 sBit rate mode : VariableBit rate : 1 b/sStream size : 341 Bytes (0%)Title : Russian / Forced (rech_tolko_prishelcev)Forced : NoEncoded date : UTC 2018-07-06 17:04:33Tagged date : UTC 2018-07-06 17:41:40

Text #3ID : 9Format : Timed TextCodec ID : tx3gDuration : 2 h 4 minBit rate mode : VariableBit rate : 79 b/sStream size : 72.3 KiB (0%)Title : Russian / Full R5 plus (rech_droidov_i_prishelcev)Forced : NoEncoded date : UTC 2018-07-06 17:04:33Tagged date : UTC 2018-07-06 17:41:40

Text #4ID : 10Format : Timed TextCodec ID : tx3gDuration : 2 h 3 minBit rate mode : VariableBit rate : 74 b/sStream size : 66.6 KiB (0%)Title : Russian / Full R5Forced : NoEncoded date : UTC 2018-07-06 17:04:33Tagged date : UTC 2018-07-06 17:41:40

Text #5ID : 11Format : Timed TextCodec ID : tx3gDuration : 1 min 15 sBit rate mode : VariableBit rate : 69 b/sStream size : 652 Bytes (0%)Title : English / ForcedForced : NoEncoded date : UTC 2018-07-06 17:04:33Tagged date : UTC 2018-07-06 17:41:40

Text #6ID : 12Format : Timed TextCodec ID : tx3gDuration : 2 h 3 minBit rate mode : VariableBit rate : 46 b/sStream size : 41.7 KiB (0%)Title : English / FullForced : NoEncoded date : UTC 2018-07-06 17:04:33Tagged date : UTC 2018-07-06 17:41:40

Text #7ID : 13Format : Timed TextCodec ID : tx3gDuration : 2 h 9 minBit rate mode : VariableBit rate : 57 b/sStream size : 54.2 KiB (0%)Title : English / SDHForced : NoEncoded date : UTC 2018-07-06 17:04:33Tagged date : UTC 2018-07-06 17:41:40

Text #8ID : 14Format : Timed TextCodec ID : tx3gDuration : 2 h 9 minBit rate mode : VariableBit rate : 78 b/sStream size : 73.6 KiB (0%)Title : English / SDH ColoredForced : NoEncoded date : UTC 2018-07-06 17:04:33Tagged date : UTC 2018-07-06 17:41:40


Трекер:  [ 06-Июл-2018 22:06 ]

  

Скачать .torrent

Размер .torrent файла 17 KB


Размер: 3.3 GB
Хэш (hash) релиза: d04fd7a050c7774963c9be8eafb0a6ebe88b90f4

Торренты, похожие на [VIDEO] Звёздные войны: Пробуждение силы Star Wars: Episode VII - The Force Awakens скачать торрент

Форум Название Автор Размер S L Добавлен
Видео (Фильмы/Клипы) ·%· [VIDEO] Звёздные войны: Пробуждение силы / Star Wars: Episode VII - The Force Awakens (Джей Джей Абрамс / J.J. Abrams) [2015, фантастика, фэнтези, боевик, приключения, BDRip] [3GP, 320x] [Локализированный видеоряд] Galfimbul 497901784475 MB 0 0 1530905801

22:36

6-Июл-18

Видео (Фильмы/Клипы) ·%· [VIDEO] Звёздные войны: Пробуждение силы / Star Wars: Episode VII - The Force Awakens (Джей Джей Абрамс / J.J. Abrams) [2015, фантастика, фэнтези, боевик, приключения, BDRip] [MP4, 960x] [Оригинальный видеоряд] Galfimbul 21974839812.05 GB 0 0 1530905792

22:36

6-Июл-18

Видео (Фильмы/Клипы) ·%· [VIDEO] Звёздные войны: Пробуждение силы / Star Wars: Episode VII - The Force Awakens (Джей Джей Абрамс / J.J. Abrams) [2015, фантастика, фэнтези, боевик, приключения, BDRip] [MP4, 480x] [Локализированный видеоряд] Galfimbul 652981857623 MB 0 0 1530905784

22:36

6-Июл-18

Видео (Фильмы/Клипы) ·%· [VIDEO] Звёздные войны: Пробуждение силы / Star Wars: Episode VII - The Force Awakens (Джей Джей Абрамс / J.J. Abrams) [2015, фантастика, фэнтези, боевик, приключения, BDRip] [MP4, 960x] [Локализированный видеоряд] Galfimbul 21974974502.05 GB 0 0 1530903978

22:06

6-Июл-18

Еще никто не оставлял запись к записи скачать торрент [VIDEO] Звёздные войны: Пробуждение силы Star Wars: Episode VII - The Force Awakens . Будь первым!

!Обратная связь