Adelheid und ihre Mörder | Scarica APK | Top IMDb

Скачать через торрент Повелитель тьмы: Другая история мира — Магия подчинения Isekai Maou to Shoukan Shoujo no Dorei Majutsu бесплатно Аниме Все серии на русском torrent

Статистика раздачи
Размер:  377 MB   |    Зарегистрирован:  11 дней   |    .torrent скачан:  32 раза   |   
Раздают:  1  
   
загрузка...
 
Автор Сообщение

Galfimbul

avatar Galfimbul


<div class="post-box-default">
<div class="post-box">Страна: Япония
Год выпуска: 2018
Жанр: Комедия, Фэнтези
Тип: TV
Продолжительность: ?? эп. ~24 мин
Режиссер: Юта Мурано
Студия:
Озвучка: Трехголосая / AniLibria
—Sharon(муж)
—Silv(жен)
—Hekomi(жен)
Перевод: Sovet Romantica</div>
</div>

Описание: В MMORPG-игре «Перепутье» ни один игрок не мог потягаться по силе и стратегии с Диабло — игроком, которого остальные часто называли «Королём демонов». В реальности же Диабло — Такума Сакамото, затворник, который посвятил игре уже несколько лет и знает о ней практически всё.
Однажды Такума при странном стечении обстоятельств приходит в себя на странном алтаре в окружении двух миленьких девушек, которые между собой спорили, кто же призвал его. Осмотревшись кругом, Такума понял, что попал в мир «Перепутья» и стал персонажем, за которого он играл! Но вместо удачного завершения ритуала призыва и подчинения Диабло, всё обернулось с точностью до наоборот: девушка-пантерианка и эльфийка сами оказались подчинёнными.
Приключения сильнейшего мага и его двух новых спутниц начинаются!

Информационные ссылки:: AniDB | MyAnimeList | World Art

<div class="post-box-default">
<div class="post-box">Качество: HDTVRip
Тип релиза: Без хардсаба
Формат видео: MKV
Автор рипа: Ohys-Raws
Видео: AVC, 8 bits, 1280x720, ~1800 kbps, 23,976 fps
Аудио: RUS, AAC, 48000 Hz, 192 kbps, 2 ch; Язык Русский (в составе контейнера) ;
Аудио 2: JAP, AAC, 48000 Hz, 192 kbps, 2 ch;
Субтитры: RUS, ASS (надписи + полные, в составе контейнера) Sovet Romantica (Alvakarp)</div>
</div>
Формат : MatroskaВерсия формата : Version 4 / Version 2Размер файла : 377 МбайтПродолжительность : 24 м. 0 с.Общий поток : 2196 Кбит/секДата кодирования : UTC 2018-07-06 15:13:35Программа кодирования : mkvmerge v22.0.0 ('At The End Of The World') 64-bitБиблиотека кодирования : libebml v1.3.5 + libmatroska v1.4.8Attachments : comic.ttf / d9464-arkhip_font.ttf / tahoma.ttf / 10199.ttf / 10213.ttf / 11302.ttf / 11775.ttf / 6427565.ttf

ВидеоИдентификатор : 1Формат : AVCФормат/Информация : Advanced Video CodecПрофиль формата : [email protected]Настройки формата : CABAC / 4 Ref FramesПараметр CABAC формата : ДаПараметр RefFrames формата : 4 кадраИдентификатор кодека : V_MPEG4/ISO/AVCПродолжительность : 24 м. 0 с.Битрейт : 1800 Кбит/секШирина : 1280 пикселейВысота : 720 пикселейСоотношение сторон : 16:9Режим частоты кадров : ПостоянныйЧастота кадров : 23,976 (24000/1001) кадра/секЦветовое пространство : YUVСубдискретизация насыщенности : 4:2:0Битовая глубина : 8 битТип развёртки : ПрогрессивнаяБит/(Пиксели*Кадры) : 0.081Размер потока : 309 Мбайт (82%)Библиотека кодирования : x264 core 155 r2901 7d0ff22Настройки программы : cabac=1 / ref=3 / deblock=1:0:0 / analyse=0x1:0x111 / me=hex / subme=7 / psy=1 / psy_rd=1.00:0.00 / mixed_ref=1 / me_range=16 / chroma_me=1 / trellis=1 / 8x8dct=0 / cqm=0 / deadzone=21,11 / fast_pskip=1 / chroma_qp_offset=-2 / threads=18 / lookahead_threads=3 / sliced_threads=0 / nr=0 / decimate=1 / interlaced=0 / bluray_compat=0 / constrained_intra=0 / bframes=3 / b_pyramid=2 / b_adapt=1 / b_bias=0 / direct=1 / weightb=1 / open_gop=0 / weightp=2 / keyint=240 / keyint_min=1 / scenecut=40 / intra_refresh=0 / rc_lookahead=40 / rc=crf / mbtree=1 / crf=20.0 / qcomp=0.60 / qpmin=0 / qpmax=69 / qpstep=4 / ip_ratio=1.40 / aq=1:1.50Default : ДаForced : НетЦветовой диапазон : LimitedОсновные цвета : BT.709Характеристики трансфера : BT.709Коэффициенты матрицы : BT.709

Аудио #1Идентификатор : 2Формат : AACФормат/Информация : Advanced Audio CodecПрофиль формата : LCИдентификатор кодека : A_AAC-2Продолжительность : 24 м. 0 с.Битрейт : 192 Кбит/секКаналы : 2 каналаРасположение каналов : Front: L RЧастота : 48,0 КГцЧастота кадров : 46,875 кадров/сек (1024 SPF)Метод сжатия : С потерямиРазмер потока : 33,0 Мбайт (9%)Заголовок : Sharon Silv HekomiЯзык : RussianDefault : ДаForced : Нет

Аудио #2Идентификатор : 3Формат : AACФормат/Информация : Advanced Audio CodecПрофиль формата : LCИдентификатор кодека : A_AAC-2Продолжительность : 24 м. 0 с.Битрейт : 192 Кбит/секКаналы : 2 каналаРасположение каналов : Front: L RЧастота : 48,0 КГцЧастота кадров : 46,875 кадров/сек (1024 SPF)Метод сжатия : С потерямиРазмер потока : 32,5 Мбайт (9%)Заголовок : ОригиналЯзык : JapaneseDefault : НетForced : Нет

Текст #1Идентификатор : 4Формат : ASSИдентификатор кодека : S_TEXT/ASSИдентификатор кодека/Информация : Advanced Sub Station AlphaПродолжительность : 23 м. 7 с.Битрейт : 49 бит/секElementCount : 44Метод сжатия : Без потерьРазмер потока : 8,36 Кбайт (0%)Заголовок : НадписиЯзык : RussianDefault : ДаForced : Да

Текст #2Идентификатор : 5Формат : ASSИдентификатор кодека : S_TEXT/ASSИдентификатор кодека/Информация : Advanced Sub Station AlphaПродолжительность : 23 м. 47 с.Битрейт : 190 бит/секElementCount : 395Метод сжатия : Без потерьРазмер потока : 33,2 Кбайт (0%)Заголовок : Sovet RomanticaЯзык : RussianDefault : НетForced : Нет

01. The Demon Lord Act (Вести себя, как Король Демонов)
02. The Strongest Newcomer (Сильнейший новичок)
03.
04.
05.
06.
07.
08.
09.
10.
11.
12.
13. ...


Добавлена 1 серия

Трекер:  [ 06-Июл-2018 18:30 ]

  

Скачать .torrent

Размер .torrent файла 15 KB


Размер: 377 MB
Хэш (hash) релиза: a513bacb3c6a6d1c255f22c266b43861c7871163
Подписка на обновления:

Еще никто не оставлял запись к записи скачать торрент Повелитель тьмы: Другая история мира — Магия подчинения Isekai Maou to Shoukan Shoujo no Dorei Majutsu . Будь первым!

!Обратная связь