One in a Million | ¡Kapow!!! Junio Vol.1 : Isla de Craperros !!!! | New Spiderman

Скачать через торрент Закон каменных джунглей Сезон 1-2 Фильм бесплатно в хорошем качестве torrent

Скачивайте на UnionPeer.org фильмы через торрент без регистрации. Новинки кино в хорошем качестве через торрент. На UnionPeer.org можно скачать через торрент фильмы 2014 и 2015 годов. Самые новые фильмы.

Скачать торрент Закон каменных джунглей Сезон 1-2 бесплатно через .torrent фильм мультфильм сериал

Статистика раздачи
Размер:  20.96 GB   |    Зарегистрирован:  13 дней   |    .torrent скачан:  51 раз   |   
Раздают:  1  
   
загрузка...
 
Автор Сообщение

Galfimbul

avatar Galfimbul


Закон каменных джунглей

Год выпуска: 2015-2017
Производство: ТНТ, СинеПро, RATPACK Production
Жанр: драма, криминал
Продолжительность: ~00:45:00 серия
Субтитры: нет

Режиссёр: Игорь Хомский, Иван Бурлаков, Павел Костомаров, Александр Расторгуев

В ролях: Аристарх Венес, Никита Павленко, Игорь Огурцов, Александр Мельников, Даниил Вахрушев, Владимир Сычёв, Александр Петров, Юлия Хлынина, Елизавета Кононова, Дарья Руденок, Светлана Садковская, Роман Синицын, Дмитрий Власкин, Руслан Братов, Сергей Глушко, Мария Сурова, Андрей Коровниченко, Дмитрий Поддубный, Лариса Никитина, Александр Боровиков, Татьяна Конышева
Описание: Четыре парня с окраины Москвы решают заработать легких денег — перегнать машину с краденым грузом внутри. Не особо задумываясь о последствиях, они совершают одну ошибку за другой, и очень скоро у них появляются серьезные проблемы с законом. Теперь пути назад нет и, чтобы выжить, четырем друзьям нужно во что бы то ни стало держаться вместе.

Реклама: Нет.

Все раздачи сериала
Sample 1 сезон
Sample 2 сезон

Качество: WEBRip 1080p - Nikolspup
Формат: MKV
Видео кодек: H.264
Аудио кодек: AC3
Видео 1 сезон: MPEG4 AVC Video, H264, 1920x1080, 25 fps, ~4000 kbps, 0.077 bit/pixel
Видео 2 сезон: MPEG4 AVC Video, H264, 1920x864, 25 fps, ~4000 kbps, 0.097 bit/pixel
Аудио оба сезона: AC3 Dolby Digital, 48.0 kHz, 2/0 (L,R) ch, 192 kbps
General
Unique ID : 225873115325215041682856739379129009709 (0xA9ED946387540A7EA7955A832D1AC62D)
Complete name : J:\Zakon.kamennyh.dzhunglej.S01-02.2015-2017.WEB-DL.(1080p).Nikolspup\Zakon.kamennyh.dzhunglej.S01.(01.seriya.iz.08).2015.WEB-DL.(1080p).Nikolspup.mkv
Format : Matroska
Format version : Version 4 / Version 2
File size : 1.32 GiB
Duration : 45 min 0 s
Overall bit rate mode : Variable
Overall bit rate : 4 197 kb/s
Encoded date : UTC 2018-05-27 11:16:06
Writing application : mkvmerge v7.8.0 ('River Man') 32bit built on Mar 27 2015 16:18:02
Writing library : libebml v1.3.1 + libmatroska v1.4.2

Video
ID : 1
Format : AVC
Format/Info : Advanced Video Codec
Format profile : [email protected]
Format settings : CABAC / 3 Ref Frames
Format settings, CABAC : Yes
Format settings, ReFrames : 3 frames
Format settings, GOP : M=1, N=15
Codec ID : V_MPEG4/ISO/AVC
Duration : 45 min 0 s
Bit rate mode : Variable
Bit rate : 4 003 kb/s
Maximum bit rate : 40.0 Mb/s
Width : 1 920 pixels
Height : 1 080 pixels
Display aspect ratio : 16:9
Frame rate mode : Constant
Frame rate : 25.000 FPS
Color space : YUV
Chroma subsampling : 4:2:0
Bit depth : 8 bits
Scan type : Progressive
Bits/(Pixel*Frame) : 0.077
Stream size : 1.26 GiB (95%)
Default : Yes
Forced : No
Color range : Limited
Color primaries : BT.709
Transfer characteristics : BT.709
Matrix coefficients : BT.709

Audio
ID : 2
Format : AC-3
Format/Info : Audio Coding 3
Codec ID : A_AC3
Duration : 45 min 0 s
Bit rate mode : Constant
Bit rate : 192 kb/s
Channel(s) : 2 channels
Channel positions : Front: L R
Sampling rate : 48.0 kHz
Frame rate : 31.250 FPS (1536 SPF)
Bit depth : 16 bits
Compression mode : Lossy
Stream size : 61.8 MiB (5%)
Language : Russian
Service kind : Complete Main
Default : Yes
Forced : No
General
Unique ID : 246413008222937674119688122396435153625 (0xB9616B4B9983D4A986FA928AE33E02D9)
Complete name : J:\Zakon.kamennyh.dzhunglej.S01-02.2015-2017.WEB-DL.(1080p).Nikolspup\Zakon.kamennyh.dzhunglej.S02.(01.seriya.iz.08).2017.WEB-DL.(1080p).Nikolspup.mkv
Format : Matroska
Format version : Version 4 / Version 2
File size : 1.37 GiB
Duration : 46 min 45 s
Overall bit rate mode : Variable
Overall bit rate : 4 199 kb/s
Encoded date : UTC 2018-05-27 12:10:03
Writing application : mkvmerge v7.8.0 ('River Man') 32bit built on Mar 27 2015 16:18:02
Writing library : libebml v1.3.1 + libmatroska v1.4.2

Video
ID : 1
Format : AVC
Format/Info : Advanced Video Codec
Format profile : [email protected]
Format settings : CABAC / 3 Ref Frames
Format settings, CABAC : Yes
Format settings, ReFrames : 3 frames
Format settings, GOP : M=1, N=15
Codec ID : V_MPEG4/ISO/AVC
Duration : 46 min 45 s
Bit rate mode : Variable
Bit rate : 4 005 kb/s
Maximum bit rate : 40.0 Mb/s
Width : 1 920 pixels
Height : 864 pixels
Display aspect ratio : 2.222
Frame rate mode : Constant
Frame rate : 25.000 FPS
Color space : YUV
Chroma subsampling : 4:2:0
Bit depth : 8 bits
Scan type : Progressive
Bits/(Pixel*Frame) : 0.097
Stream size : 1.31 GiB (95%)
Default : Yes
Forced : No
Color range : Limited
Color primaries : BT.709
Transfer characteristics : BT.709
Matrix coefficients : BT.709

Audio
ID : 2
Format : AC-3
Format/Info : Audio Coding 3
Codec ID : A_AC3
Duration : 46 min 45 s
Bit rate mode : Constant
Bit rate : 192 kb/s
Channel(s) : 2 channels
Channel positions : Front: L R
Sampling rate : 48.0 kHz
Frame rate : 31.250 FPS (1536 SPF)
Bit depth : 16 bits
Compression mode : Lossy
Stream size : 64.2 MiB (5%)
Language : Russian
Service kind : Complete Main
Default : Yes
Forced : No


Трекер:  [ 06-Июл-2018 13:42 ]

  

Скачать .torrent

Размер .torrent файла 107 KB


Размер: 20.96 GB
Хэш (hash) релиза: ac011471730e64fd302eb95034d2f309be260992
Подписка на обновления:

Еще никто не оставлял запись к записи скачать торрент Закон каменных джунглей Сезон 1-2 . Будь первым!

!Обратная связь