Selena Gomez - Music Video Discovery. | (2018) DVD Trouble Is My Business | [meep] Paying to Win in a VRMMO Light Novel Vol. 1-4 [meep] Paying to Win in a VRMMO Light Novel Vol. 1-4

Скачать через торрент Ликвидация Сезон: Серии: 1-14 из 14 Фильм бесплатно в хорошем качестве torrent

Скачивайте на UnionPeer.org фильмы через торрент без регистрации. Новинки кино в хорошем качестве через торрент. На UnionPeer.org можно скачать через торрент фильмы 2014 и 2015 годов. Самые новые фильмы.

Скачать торрент Ликвидация Сезон: Серии: 1-14 из 14 бесплатно через .torrent фильм мультфильм сериал

Статистика раздачи
Размер:  18.72 GB   |    Зарегистрирован:  11 дней   |    .torrent скачан:  38 раз   |   
Раздают:  1  
   
загрузка...
 
Автор Сообщение

Galfimbul

avatar Galfimbul


Ликвидация

Год выпуска: 2007
Производство: ЗАО "Централ Партнершип" студия "Дед Мороз", Россия
Жанр: детектив, шпионский
Продолжительность: серия ~00:46:00
Субтитры: нет

Режиссёр: Сергей Урсуляк

В ролях: Владимир Машков, Михаил Пореченков, Владимир Меньшов, Сергей Маковецкий, Светлана Крючкова, Юрий Лахин, Александр Сирин, Константин Лавроненко, Константин Желдин, Полина Агуреева и др.

Описание: Лето 1946 года. Маршал Жуков в опале. Он отправлен в ссылку в Одессу, где нет житья от воров, убийц и вымогателей, а дерзкая безжалостная банда «Степные волки» повадилась грабить военные склады. И всем заправляет неуловимый немецкий шпион «Академик», которого никто не знает в лицо. И только начальник угрозыска Давид Гоцман и Георгий Жуков могут спасти город. Они задумывают сложную и опасную операцию…

Реклама: Нет

Сэмпл: Скачать

Качество: WEBRip
Формат: MKV
Видео кодек: H.264
Аудио кодек: AC3
Видео: 1200x720, 25 fps, 4000 kbps, 0.185 bit/pixel
Аудио: AC3, 48 Hz, 2 ch, 192 kbps
General
Unique ID : 170286211179296901402111006663413827484 (0x801BEE6B29310A418BBBEAB568A3879C)
Complete name : E:\Ликвидация_x720\014_Ликвидация_x720.mkv
Format : Matroska
Format version : Version 4 / Version 2
File size : 1.35 GiB
Duration : 46 min 10 s
Overall bit rate : 4 195 kb/s
Encoded date : UTC 2018-07-06 02:43:13
Writing application : mkvmerge v6.9.1 ('Blue Panther') 32bit built on Apr 18 2014 18:15:44
Writing library : libebml v1.3.0 + libmatroska v1.4.1
Attachments : poster.jpg

Video
ID : 1
Format : AVC
Format/Info : Advanced Video Codec
Format profile : [email protected]
Format settings : CABAC / 9 Ref Frames
Format settings, CABAC : Yes
Format settings, ReFrames : 9 frames
Codec ID : V_MPEG4/ISO/AVC
Duration : 46 min 10 s
Bit rate : 4 000 kb/s
Width : 1 200 pixels
Height : 720 pixels
Display aspect ratio : 5:3
Frame rate mode : Constant
Frame rate : 25.000 FPS
Color space : YUV
Chroma subsampling : 4:2:0
Bit depth : 8 bits
Scan type : Progressive
Bits/(Pixel*Frame) : 0.185
Stream size : 1.26 GiB (93%)
Writing library : x264 core 155 r2901M 7d0ff22
Encoding settings : cabac=1 / ref=9 / deblock=1:-1:-1 / analyse=0x3:0x133 / me=umh / subme=10 / psy=1 / psy_rd=1.05:0.10 / mixed_ref=1 / me_range=32 / chroma_me=1 / trellis=2 / 8x8dct=1 / cqm=0 / deadzone=21,11 / fast_pskip=0 / chroma_qp_offset=-3 / threads=9 / lookahead_threads=1 / sliced_threads=0 / nr=0 / decimate=1 / interlaced=0 / bluray_compat=0 / constrained_intra=0 / bframes=9 / b_pyramid=2 / b_adapt=2 / b_bias=0 / direct=3 / weightb=1 / open_gop=0 / weightp=2 / keyint=250 / keyint_min=25 / scenecut=40 / intra_refresh=0 / rc_lookahead=60 / rc=2pass / mbtree=1 / bitrate=4000 / ratetol=1.0 / qcomp=0.70 / qpmin=3 / qpmax=69 / qpstep=4 / cplxblur=20.0 / qblur=0.5 / ip_ratio=1.30 / aq=3:1.00
Default : Yes
Forced : No

Audio
ID : 2
Format : AC-3
Format/Info : Audio Coding 3
Codec ID : A_AC3
Duration : 46 min 10 s
Bit rate mode : Constant
Bit rate : 192 kb/s
Channel(s) : 2 channels
Channel positions : Front: L R
Sampling rate : 48.0 kHz
Frame rate : 31.250 FPS (1536 SPF)
Bit depth : 16 bits
Compression mode : Lossy
Stream size : 63.4 MiB (5%)
Language : Russian
Service kind : Complete Main
Default : Yes
Forced : No
Предыдущие и альтернативные раздачи

Трекер:  [ 06-Июл-2018 10:42 ]

  

Скачать .torrent

Размер .torrent файла 48 KB


Размер: 18.72 GB
Хэш (hash) релиза: 86b2910b3e5b430200890c6df4c1de9231f97bfe
Подписка на обновления:

Торренты, похожие на Ликвидация Сезон: Серии: 1-14 из 14 скачать торрент

Форум Название Автор Размер S L Добавлен
Российские сериалы ·· Ликвидация / Сезон: 1 / Серии: 14 из 14 (Сергей Урсуляк) [2007, Детектив, боевик, HDTVRip] Galfimbul 93520204228.71 GB 0 0 1428093158

23:32

3-Апр-15

Российские сериалы ·%· Ликвидация / Сезон: 1 / Серии: 1-14 из 14 (Сергей Урсуляк) [2007, военный фильм, детектив, исторический фильм, шпионский фильм, HDTVRip] Galfimbul 80881889287.53 GB 0 0 1528989171

18:12

14-Июн-18

Российские сериалы ·· Ликвидация / Сезон: 1 / Серии: 1-14 из 14 (Сергей Урсуляк) [2007, детектив, шпионский, DVDRip] Galfimbul 1522748089014.18 GB 0 0 1510518167

23:22

12-Ноя-17

Российские сериалы ·· Ликвидация / Сезон: 1 / Серии: 1-14 из 14 (Сергей Урсуляк) [2007, Детектив, боевик, Blu-ray disc 1080p] Galfimbul 4914774359745.77 GB 0 0 1490426606

10:23

25-Мар-17

Российские сериалы ·· Ликвидация / Сезон: 1 / Серии: 1-14 из 14 (Сергей Урсуляк) [Россия, детектив, криминал, триллер, Blu-Ray 1080i] Galfimbul 4914774400545.77 GB 0 0 1488558671

19:31

3-Мар-17

Российские сериалы ·· Ликвидация / Сезон: 1 / Серии: 1-14 из 14 (Сергей Урсуляк) [2007, Детектив, боевик, HDTVRip (720p)] Galfimbul 2336199178821.76 GB 0 0 1431794092

19:34

16-Май-15

Российские сериалы ·· Ликвидация / Сезон: 1 / Серии: 1-14 из 14 (Сергей Урсуляк) [2007, Детектив, боевик, HDTVRip-AVC] Galfimbul 1258296662111.72 GB 0 0 1431761879

10:37

16-Май-15

Российские сериалы ·· Ликвидация / Сезон: 1 / Серии: 1-14 из 14 (Сергей Урсуляк) [2007, Детектив, боевик, HDTV 1080i] Galfimbul 4070275632437.91 GB 0 0 1431745448

06:04

16-Май-15

Еще никто не оставлял запись к записи скачать торрент Ликвидация Сезон: Серии: 1-14 из 14 . Будь первым!

!Обратная связь