Oral Pharmacology for Dental Hygienist (08) by Weinberg, Mea A - Westphal, Cheryl - Fine, James Burke [Paperback (2007)] | Watch movie | Fushigi Neko no Kyuu-chan 150

Скачать через торрент Рояль в лесу бесплатно Аниме Все серии на русском torrent

Статистика раздачи
Размер:  3.01 GB   |    Зарегистрирован:  2 месяца 17 дней   |    .torrent скачан:  36 раз   |   
Раздают:  1  
   
загрузка...
 
Автор Сообщение

Galfimbul

avatar Galfimbul


Рояль в лесу [ТВ-1] / Piano no Mori (2018)
Страна:
Год выпуска: 2018
Жанр: драма, музыкальный
Тип: TV
Продолжительность: 12 эп. по 25 мин.
Режиссер: Накатани Гаку
Студия:

Описание:
Невероятная история рояля, сменившего несколько поколений гениальных владельцев и объединившего их судьбы, полные взлётов и падений, между собой, начинается в тот момент, когда обыкновенный хулиган и оборванец, да ещё и сын проститутки Кай Ичиносэ находит его выброшенным в лесу близ своего дома. Очарованный таинственным инструментом, он, сам того не ведая, открыл в себе необычайный, практически сказочный талант игры на фортепиано и слух, которому могли бы позавидовать многие известные музыканты его времени.
Доп. информация: AniDB || World Art || MAL
Качество: HDTVRip
Тип релиза: Без хардсаба
Формат видео: MP4
Наличие линковки: Нет
Релиз/Автор рипа: [Ohys-Raws]
Видео: AVC, 1280x720, 1 277 kb/s, 23.976 FPS, 8 bits
Аудио: AAC, 203 kb/s, 48.0 kHz, 2 channels
Субтитры: ASS, внешние
Перевод: laci
General
Complete name                  : G:\L\[Ohys-Raws] Piano no Mori (2018) (NHKG 1280x720 x264 AAC)\[Ohys-Raws] Piano no Mori (2018) - 01 (NHKG 1280x720 x264 AAC).mp4
Format                         : MPEG-4
Format profile                 : Base Media
Codec ID                       : isom (isom/avc1)
File size                      : 265 MiB
Duration                       : 25 min 0 s
Overall bit rate mode          : Variable
Overall bit rate               : 1 484 kb/s
Encoded date                   : UTC 2018-04-08 16:23:50
Tagged date                    : UTC 2018-04-08 16:23:50

Video
ID                             : 1
Format                         : AVC
Format/Info                    : Advanced Video Codec
Format profile                 : [email protected]
Format settings                : CABAC / 4 Ref Frames
Format settings, CABAC         : Yes
Format settings, ReFrames      : 4 frames
Codec ID                       : avc1
Codec ID/Info                  : Advanced Video Coding
Duration                       : 24 min 59 s
Bit rate                       : 1 277 kb/s
Maximum bit rate               : 7 641 kb/s
Width                          : 1 280 pixels
Height                         : 720 pixels
Display aspect ratio           : 16:9
Frame rate mode                : Constant
Frame rate                     : 23.976 (24000/1001) FPS
Color space                    : YUV
Chroma subsampling             : 4:2:0
Bit depth                      : 8 bits
Scan type                      : Progressive
Bits/(Pixel*Frame)             : 0.058
Stream size                    : 228 MiB (86%)
Writing library                : x264 core 155 r2867+82 a249126 t_mod_Custom_2 [[email protected] X86_64]
Encoding settings              : cabac=1 / ref=3 / deblock=1:0:0 / analyse=0x1:0x111 / me=hex / subme=7 / psy=1 / fade_compensate=0.00 / psy_rd=1.00:0.00 / mixed_ref=1 / me_range=16 / chroma_me=1 / trellis=1 / 8x8dct=0 / cqm=0 / deadzone=21,11 / fast_pskip=1 / chroma_qp_offset=-2 / threads=18 / lookahead_threads=3 / sliced_threads=0 / nr=0 / decimate=1 / interlaced=0 / bluray_compat=0 / constrained_intra=0 / fgo=0 / bframes=3 / b_pyramid=2 / b_adapt=1 / b_bias=0 / direct=1 / weightb=1 / open_gop=0 / weightp=2 / keyint=240 / keyint_min=1 / scenecut=40 / intra_refresh=0 / rc_lookahead=40 / rc=crf / mbtree=1 / crf=20.0000 / qcomp=0.60 / qpmin=0:0:0 / qpmax=69:69:69 / qpstep=4 / ip_ratio=1.40 / aq=1:1.50 / aq-sensitivity=10.00 / aq-factor=1.00:1.00:1.00 / aq2=0 / aq3=0
Encoded date                   : UTC 2018-04-08 16:23:50
Tagged date                    : UTC 2018-04-08 16:23:52
Color range                    : Limited
Color primaries                : BT.709
Transfer characteristics       : BT.709
Matrix coefficients            : BT.709

Audio
ID                             : 2
Format                         : AAC
Format/Info                    : Advanced Audio Codec
Format profile                 : LC
Codec ID                       : mp4a-40-2
Duration                       : 25 min 0 s
Bit rate mode                  : Variable
Bit rate                       : 203 kb/s
Maximum bit rate               : 253 kb/s
Channel(s)                     : 2 channels
Channel positions              : Front: L R
Sampling rate                  : 48.0 kHz
Frame rate                     : 46.875 FPS (1024 SPF)
Compression mode               : Lossy
Stream size                    : 36.3 MiB (14%)
Language                       : Japanese
Encoded date                   : UTC 2018-04-08 16:16:46
Tagged date                    : UTC 2018-04-08 16:23:52
1 Chosen One
2 To Play Chopin`s Pieces
3 What Mozart Has Left.
4 The Best Piano
5 God of Competition
6 The Forest Piano
7 Reunion
8 Letter of Challenge
9 Commencement at Warsaw
10 Chopin Competition
11 The New Star of Poland
12 Fortississimo


Трекер:  [ 06-Июл-2018 08:30 ]

  

Скачать .torrent

Размер .torrent файла 18 KB


Размер: 3.01 GB
Хэш (hash) релиза: a8910a69099267bdc2f84563a0b578a57eaf0d7e
Подписка на обновления:

Еще никто не оставлял запись к записи скачать торрент Рояль в лесу . Будь первым!

!Обратная связь