Animes Boku no hero academia 3x11 | DOWNLOAD | Rhinorose

Скачать через торрент музыку VA - SHAMAN KING DRAMA & CHARACTER SONG ALBUM Osorezan REVOIR ~prologue to shaman~ - 2002, FLAC бесплатно без регистрации torrent

Статистика раздачи
Размер:  421 MB   |    Зарегистрирован:  10 дней   |    .torrent скачан:  24 раза   |   
Раздают:  1  
   
загрузка...
 
Автор Сообщение

Galfimbul

avatar Galfimbul


SHAMAN KING DRAMA & CHARACTER SONG ALBUM Osorezan REVOIR ~prologue to shaman~
Японское название: シャーマンキング ドラマ&キャラクターソングアルバム/恐山ル・ヴォワール〜prologue to shaman〜
Жанр: Soundtrack
Композитор: Toshiyuki O'mori, Go Takahashi, Masato Yamada, Hiroo Ikeda, Mio Okada
Страна-производитель диска: Япония
Год издания диска: 2002
Издатель (лейбл): King Records
Номер по каталогу: KICA-581
Страна: Япония
Релиз от:
Аудиокодек: FLAC
Тип рипа: tracks+.cue
Битрейт аудио: lossless
Продолжительность: 01:10:46
Источник: собственный рип
Наличие сканов в содержимом раздачи: да
01. Northern lights
02. 無碍
03. discover
04. IN YOU
05. ねこまたのマタムネ
06. この世とあの世を結ぶ山
07. もがけばもがくほど
08. なんとかしてやる
09. Northern lights (ballade version)
Exact Audio Copy V1.3 from 2. September 2016

EAC extraction logfile from 6. July 2018, 1:50

シャーマンキング ドラマ&キャラクターソングアルバム / 恐山ル・ヴォワール〜prologue to shaman〜

Used drive : PIONEER BD-RW BDR-205 Adapter: 1 ID: 1

Read mode : SecureUtilize accurate stream : YesDefeat audio cache : YesMake use of C2 pointers : No

Read offset correction : 667Overread into Lead-In and Lead-Out : NoFill up missing offset samples with silence : YesDelete leading and trailing silent blocks : NoNull samples used in CRC calculations : YesUsed interface : Native Win32 interface for Win NT & 2000Gap handling : Appended to previous track

Used output format : User Defined EncoderSelected bitrate : 1024 kBit/sQuality : HighAdd ID3 tag : NoCommand line compressor : C:\Program Files (x86)\Exact Audio Copy\Flac\flac.exeAdditional command line options : -V -8 -T "Genre=%genre%" -T "Artist=%artist%" -T "Title=%title%" -T "Album=%albumtitle%" -T "Date=%year%" -T "Tracknumber=%tracknr%" -T "Comment=%comment%" %source%

TOC of the extracted CD

Track | Start | Length | Start sector | End sector --------------------------------------------------------- 1 | 0:00.00 | 3:30.37 | 0 | 15786 2 | 3:30.37 | 5:44.73 | 15787 | 41659 3 | 9:15.35 | 4:41.22 | 41660 | 62756 4 | 13:56.57 | 5:36.05 | 62757 | 87961 5 | 19:32.62 | 6:52.13 | 87962 | 118874 6 | 26:25.00 | 11:03.40 | 118875 | 168639 7 | 37:28.40 | 12:23.52 | 168640 | 224416 8 | 49:52.17 | 15:48.18 | 224417 | 295534 9 | 65:40.35 | 5:09.55 | 295535 | 318764

Track 1

Filename F:\Users\mihail2501\Music\eac\恐山ル・ヴォワール〜prologue to shaman〜\01 - 林原めぐみ - Northern lights.wav

Pre-gap length 0:00:02.00

Peak level 99.9 % Extraction speed 4.1 X Track quality 99.9 % Test CRC F171C676 Copy CRC F171C676 Accurately ripped (confidence 1) [89893050] (AR v2) Copy OK

Track 2

Filename F:\Users\mihail2501\Music\eac\恐山ル・ヴォワール〜prologue to shaman〜\02 - 道蓮 (朴 王路美) - 無碍.wav

Pre-gap length 0:00:02.37

Peak level 99.9 % Extraction speed 5.0 X Track quality 99.9 % Test CRC 8E6D01EA Copy CRC 8E6D01EA Accurately ripped (confidence 1) [8EF626DF] (AR v2) Copy OK

Track 3

Filename F:\Users\mihail2501\Music\eac\恐山ル・ヴォワール〜prologue to shaman〜\03 - リゼルグ (沢海陽子) - discover.wav

Pre-gap length 0:00:02.38

Peak level 99.9 % Extraction speed 5.8 X Track quality 100.0 % Test CRC 14893C58 Copy CRC 14893C58 Accurately ripped (confidence 1) [325CE010] (AR v2) Copy OK

Track 4

Filename F:\Users\mihail2501\Music\eac\恐山ル・ヴォワール〜prologue to shaman〜\04 - ジャンヌ (堀江由衣) - IN YOU.wav

Pre-gap length 0:00:02.37

Peak level 96.6 % Extraction speed 6.4 X Track quality 100.0 % Test CRC C3B3CE9D Copy CRC C3B3CE9D Accurately ripped (confidence 1) [BA166AE8] (AR v2) Copy OK

Track 5

Filename F:\Users\mihail2501\Music\eac\恐山ル・ヴォワール〜prologue to shaman〜\05 - シャーマンキング ドラマ&キャラクターソングアルバム - Episode 1:ねこまたのマタムネ.wav

Pre-gap length 0:00:03.37

Peak level 99.9 % Extraction speed 7.0 X Track quality 100.0 % Test CRC E25AECD0 Copy CRC E25AECD0 Accurately ripped (confidence 1) [E5E4B9AF] (AR v2) Copy OK

Track 6

Filename F:\Users\mihail2501\Music\eac\恐山ル・ヴォワール〜prologue to shaman〜\06 - シャーマンキング ドラマ&キャラクターソングアルバム - Episode 2:この世とあの世を結ぶ山.wav

Peak level 84.1 % Extraction speed 8.0 X Track quality 100.0 % Test CRC DBF0CB9E Copy CRC DBF0CB9E Accurately ripped (confidence 1) [EBEE9502] (AR v2) Copy OK

Track 7

Filename F:\Users\mihail2501\Music\eac\恐山ル・ヴォワール〜prologue to shaman〜\07 - シャーマンキング ドラマ&キャラクターソングアルバム - Episode 3:もがけばもがくほど.wav

Peak level 84.1 % Extraction speed 8.4 X Track quality 99.9 % Test CRC EB6803F1 Copy CRC EB6803F1 Accurately ripped (confidence 1) [2A5D1BC0] (AR v2) Copy OK

Track 8

Filename F:\Users\mihail2501\Music\eac\恐山ル・ヴォワール〜prologue to shaman〜\08 - シャーマンキング ドラマ&キャラクターソングアルバム - Episode 4:なんとかしてやる.wav

Peak level 89.1 % Extraction speed 9.7 X Track quality 100.0 % Test CRC 3D9A831A Copy CRC 3D9A831A Accurately ripped (confidence 1) [183C50A8] (AR v2) Copy OK

Track 9

Filename F:\Users\mihail2501\Music\eac\恐山ル・ヴォワール〜prologue to shaman〜\09 - 林原めぐみ - 林原めぐみ,Northern lights(ballade version).wav

Pre-gap length 0:00:03.38

Peak level 99.9 % Extraction speed 9.5 X Track quality 100.0 % Test CRC ACFF9AC4 Copy CRC ACFF9AC4 Accurately ripped (confidence 1) [6F170F91] (AR v2) Copy OK

All tracks accurately ripped

No errors occurred

End of status report

==== Log checksum 43F7E01AA87F5CF91531535AA2FA46A90DC3A5D8FBD0C132756461BD4055C79B ====
REM GENRE SoundtrackREM DATE 2002REM DISCID 80109A09REM COMMENT "ExactAudioCopy v1.3"PERFORMER "............&............."TITLE "..........prologue to shaman."REM COMPOSER ""FILE "01 - ..... - Northern lights.wav" WAVE TRACK 01 AUDIO TITLE "Northern lights" PERFORMER "....." REM COMPOSER "" INDEX 01 00:00:00 TRACK 02 AUDIO TITLE ".." PERFORMER ".. (. ...)" REM COMPOSER "" INDEX 00 03:28:00FILE "02 - .. (. ...) - ...wav" WAVE INDEX 01 00:00:00 TRACK 03 AUDIO TITLE "discover" PERFORMER ".... (....)" REM COMPOSER "" INDEX 00 05:42:35FILE "03 - .... (....) - discover.wav" WAVE INDEX 01 00:00:00 TRACK 04 AUDIO TITLE "IN YOU" PERFORMER ".... (....)" REM COMPOSER "" INDEX 00 04:38:60FILE "04 - .... (....) - IN YOU.wav" WAVE INDEX 01 00:00:00 TRACK 05 AUDIO TITLE "Episode 1:........." PERFORMER "............&............." REM COMPOSER "" INDEX 00 05:32:43FILE "05 - ............&............. - Episode 1:..........wav" WAVE INDEX 01 00:00:00FILE "06 - ............&............. - Episode 2:............wav" WAVE TRACK 06 AUDIO TITLE "Episode 2:..........." PERFORMER "............&............." REM COMPOSER "" INDEX 01 00:00:00FILE "07 - ............&............. - Episode 3:..........wav" WAVE TRACK 07 AUDIO TITLE "Episode 3:........." PERFORMER "............&............." REM COMPOSER "" INDEX 01 00:00:00FILE "08 - ............&............. - Episode 4:.........wav" WAVE TRACK 08 AUDIO TITLE "Episode 4:........" PERFORMER "............&............." REM COMPOSER "" INDEX 01 00:00:00 TRACK 09 AUDIO TITLE "...../Northern lights(ballade version)" PERFORMER "....." REM COMPOSER "" INDEX 00 15:44:55FILE "09 - ..... - .....,Northern lights(ballade version).wav" WAVE INDEX 01 00:00:00


Трекер:  [ 05-Июл-2018 23:36 ]

  

Скачать .torrent

Размер .torrent файла 18 KB


Размер: 421 MB
Хэш (hash) релиза: 9ab4115158b4fcf4b43c49208df8651f84bebf10

Еще никто не оставлял запись к записи скачать торрент VA - SHAMAN KING DRAMA & CHARACTER SONG ALBUM Osorezan REVOIR ~prologue to shaman~ - 2002, FLAC . Будь первым!

!Обратная связь