Invader Zim (1) | Literature Fiction | Robot Wars (6)

Скачать через торрент Остров Island бесплатно Аниме Все серии на русском torrent

Статистика раздачи
Размер:  307 MB   |    Зарегистрирован:  2 месяца 18 дней   |    .torrent скачан:  21 раз   |   
Раздают:  1  
   
загрузка...
 
Автор Сообщение

Galfimbul

avatar Galfimbul



Страна: Япония
Год выпуска: 2018
Жанр: Драма, Фантастика
Тип: TV
Продолжительность: ?? эп. ~24 мин
Режиссер: Кэйитиро Кавагути
Студия:
Озвучка: Трехголосая / AniLibria | SAMPLE
—Sharon(муж)
—MyAska(жен)
—Kiyoko Koheiri(жен)
Перевод: Sovet Romantica
Описание: События сериала разворачивается на острове Урасима, который находится далеко от материка.
В прошлом люди, живущие на этом острове, вели совсем беззаботную жизнь. Но пять лет назад три великие семьи острова потерпели ряд неудач, из-за чего на них обрушилось много подозрений со стороны жителей. Люди начали обрывать все связи с материком, и вся культура острова пришла в упадок. Ключ к спасению острова таится в трех девушках, принадлежащих этим семействам. Но они связаны древними традициями и не должны конфликтовать между собой.
В это непростое время на берег острова выбрасывает одинокого мужчину. Без имени, но с четким стремлением — он утверждает, что прибыл из будущего, чтобы помочь, и начинает одинокую борьбу ради изменения судьбы Урасимы.
Информационные ссылки:: AniDB | MyAnimeList | World Art
<div class="post-box-default">
<div class="post-box">Качество: HDTVRip
Тип релиза: Без хардсаба
Формат видео: MKV
Автор рипа: Ohys-Raws
Видео: AVC, 8 bits, 1280x720, ~1400 kbps, 23,976 fps
Аудио: RUS, AAC, 48000 Hz, 128 kbps, 2 ch; Язык Русский (в составе контейнера) ;
Аудио 2: JAP, AAC, 48000 Hz, 200 kbps, 2 ch;
Субтитры: RUS, ASS (надписи + полные, в составе контейнера) Sovet Romantica (WolteR)</div>
</div>
Формат : MatroskaВерсия формата : Version 4 / Version 2Размер файла : 307 МбайтПродолжительность : 24 м. 0 с.Общий поток : 1790 Кбит/секДата кодирования : UTC 2018-07-05 16:14:48Программа кодирования : mkvmerge v22.0.0 ('At The End Of The World') 64-bitБиблиотека кодирования : libebml v1.3.5 + libmatroska v1.4.8Attachments : 11798.ttf / A_Font_with_Serifs.ttf / OpenSans-Semibold.ttf / OpenSans-SemiboldItalic.ttf / V_AUGIE_V1.03.TTF

ВидеоИдентификатор : 1Формат : AVCФормат/Информация : Advanced Video CodecПрофиль формата : [email protected]Настройки формата : CABAC / 4 Ref FramesПараметр CABAC формата : ДаПараметр RefFrames формата : 4 кадраИдентификатор кодека : V_MPEG4/ISO/AVCПродолжительность : 24 м. 0 с.Битрейт : 1455 Кбит/секШирина : 1280 пикселейВысота : 720 пикселейСоотношение сторон : 16:9Режим частоты кадров : ПостоянныйЧастота кадров : 23,976 (24000/1001) кадра/секЦветовое пространство : YUVСубдискретизация насыщенности : 4:2:0Битовая глубина : 8 битТип развёртки : ПрогрессивнаяБит/(Пиксели*Кадры) : 0.066Размер потока : 250 Мбайт (81%)Заголовок : [Ohys-Raws]Библиотека кодирования : x264 core 155 r2901 7d0ff22Настройки программы : cabac=1 / ref=3 / deblock=1:0:0 / analyse=0x1:0x111 / me=hex / subme=7 / psy=1 / psy_rd=1.00:0.00 / mixed_ref=1 / me_range=16 / chroma_me=1 / trellis=1 / 8x8dct=0 / cqm=0 / deadzone=21,11 / fast_pskip=1 / chroma_qp_offset=-2 / threads=18 / lookahead_threads=3 / sliced_threads=0 / nr=0 / decimate=1 / interlaced=0 / bluray_compat=0 / constrained_intra=0 / bframes=3 / b_pyramid=2 / b_adapt=1 / b_bias=0 / direct=1 / weightb=1 / open_gop=0 / weightp=2 / keyint=240 / keyint_min=1 / scenecut=40 / intra_refresh=0 / rc_lookahead=40 / rc=crf / mbtree=1 / crf=20.0 / qcomp=0.60 / qpmin=0 / qpmax=69 / qpstep=4 / ip_ratio=1.40 / aq=1:1.50Язык : JapaneseDefault : ДаForced : ДаЦветовой диапазон : LimitedОсновные цвета : BT.709Характеристики трансфера : BT.709Коэффициенты матрицы : BT.709

Аудио #1Идентификатор : 2Формат : AACФормат/Информация : Advanced Audio CodecПрофиль формата : LCИдентификатор кодека : A_AAC-2Продолжительность : 24 м. 0 с.Битрейт : 128 Кбит/секКаналы : 2 каналаРасположение каналов : Front: L RЧастота : 48,0 КГцЧастота кадров : 46,875 кадров/сек (1024 SPF)Метод сжатия : С потерямиРазмер потока : 22,0 Мбайт (7%)Заголовок : MyAska & Kiyoko_Koheiri & SharonЯзык : RussianDefault : ДаForced : Да

Аудио #2Идентификатор : 3Формат : AACФормат/Информация : Advanced Audio CodecПрофиль формата : LCИдентификатор кодека : A_AAC-2Продолжительность : 24 м. 0 с.Битрейт : 200 Кбит/секКаналы : 2 каналаРасположение каналов : Front: L RЧастота : 48,0 КГцЧастота кадров : 46,875 кадров/сек (1024 SPF)Метод сжатия : С потерямиРазмер потока : 34,3 Мбайт (11%)Заголовок : OriginalЯзык : JapaneseDefault : НетForced : Нет

Текст #1Идентификатор : 4Формат : ASSИдентификатор кодека : S_TEXT/ASSИдентификатор кодека/Информация : Advanced Sub Station AlphaПродолжительность : 23 м. 24 с.Битрейт : 41 бит/секElementCount : 45Метод сжатия : Без потерьРазмер потока : 7,13 Кбайт (0%)Заголовок : НадписиЯзык : RussianDefault : ДаForced : Да

Текст #2Идентификатор : 5Формат : ASSИдентификатор кодека : S_TEXT/ASSИдентификатор кодека/Информация : Advanced Sub Station AlphaПродолжительность : 23 м. 46 с.Битрейт : 128 бит/секElementCount : 326Метод сжатия : Без потерьРазмер потока : 22,4 Кбайт (0%)Заголовок : Sovet RomanticaЯзык : RussianDefault : НетForced : Нет

01. We Meet Again (Мы снова встретились)
02. I Don`t Want You to Feel Bad (Не хочу, чтобы ты чувствовала себя плохо)
03.
04.
05.
06.
07.
08.
09.
10.
11.
12.
13. ...


Добавлена 1 серия

Трекер:  [ 05-Июл-2018 20:01 ]

  

Скачать .torrent

Размер .torrent файла 12 KB


Размер: 307 MB
Хэш (hash) релиза: b9e83956f66ad7b1355a980b0369c12979f0aca8
Подписка на обновления:

Торренты, похожие на Остров Island скачать торрент

Форум Название Автор Размер S L Добавлен
Аниме | HD Rips ·%· Остров / Island [TV] [1-5 из 12] [Без хардсаба] [RUS(int), JAP+SUB] [2018, Драма, Фантастика, WEBRip] [720p] Galfimbul 20995424701.96 GB 0 0 1533117667

13:01

1-Авг-18

Аниме | HD Rips ·%· Остров / Island [TV] [1 из 12] [Без хардсаба] [JAP+SUB] [2018, Драма, фантастика, WEBRip] [1080p] Galfimbul 758066200723 MB 0 0 1530466208

20:30

1-Июл-18

Аниме | Rips ·· Люпен III: Остров убийц/Вальтер P-38(спецвыпуск 09) / Lupin Sansei: Walther P38 - In Gedenken an die Walther P38 / Lupin III: Island of Assassins [Special] [без хардсаба] [RUS(int)] [1997, Приключения, Авантюрная комедия, Мистика, DVDRip] Galfimbul 12497356801.16 GB 0 0 1495222359

22:32

19-Май-17

Аниме | HD Rips ·· Остров Сокровищ / Takarajima / Treasure Island (Дедзаки Осаму) [TV] [10 из 26] [Без хардсаба] [RUS(int)+JAP+SUB] [1978, Приключения, драма, мистика, кодомо (детский), BDRip] [720p] Galfimbul 38121286393.55 GB 0 0 1491763107

21:38

9-Апр-17

Аниме | HD Rips ·· Остров Джованни / Giovanni no Shima / Giovanni's Island (Нисикубо Мидзухо) [Movie][Без хардсаба][RUS(ext), UKR, JAP+SUB][2014, драма, исторический, BDRip][1080p] Galfimbul 67904548496.32 GB 0 0 1487961189

21:33

24-Фев-17

Аниме | HD Rips ·· Остров Сокровищ (ТВ) / Takarajima / Treasure Island (Осаму Дэдзаки) [TV] [26 из 26] [Без хардсаба] [JAP+SUB] [1978 г., Приключения, драма, мистика, детский, BDRip] [720p] Galfimbul 89719101028.36 GB 0 0 1461973180

02:39

30-Апр-16

Аниме | HD Rips ·· Остров Сокровищ / Takarajima / Treasure Island [TV] [1—26 из 26] [Без хардсаба] [JAP, SUB] [1978 г., Приключения, драма, мистика, детский, BDRemux] [1080p] Galfimbul 10101062148194.07 GB 0 0 1461149825

13:57

20-Апр-16

Аниме | HD Rips ·· Остров Сокровищ (ТВ)/ Takarajima / Treasure Island [Осаму Дэдзаки] [1-17 из 26] [Без хардсаба] [JAP+SUB] [1978 г., Приключения, драма, мистика, детский, BDRip] [720p] Galfimbul 58725210935.47 GB 0 0 1444859011

00:43

15-Окт-15

Аниме | HD Rips ·· Остров Сокровищ / Takarajima / Treasure Island [TV] [1-15 из 26] [Без хардсаба] [JAP, SUB] [1978 г., Приключения, драма, мистика, детский, BDRemux] [1080p] Galfimbul 5828475205854.28 GB 0 0 1443922390

04:33

4-Окт-15

Аниме | HD Rips ·· Остров Джованни / Giovanni no Shima / Giovanni's Island (Нисикубо Мидзухо) [Movie][Без хардсаба][RUS(ext), JAP+SUB][2014, драма, исторический, BDRip][1080p] Galfimbul 69139187816.44 GB 0 0 1435564652

10:57

29-Июн-15

Аниме | HD Rips ·· Остров Джованни / Giovanni no Shima / Giovanni's Island (Нисикубо Мидзухо) [Movie][Без хардсаба][RUS(ext), JAP+SUB][2014, драма, исторический, BDRip][1080p] Galfimbul 69137265426.44 GB 0 0 1435257155

21:32

25-Июн-15

Аниме | HD Rips ·· Остров Джованни / Giovanni no Shima / Giovanni's Island [Movie] [Без хардсаба] [RUS(int), JAP+SUB] [2014 г., драма, история, BDRip] [720p] Galfimbul 20748640401.93 GB 0 0 1424902662

01:17

26-Фев-15

Аниме | Rips ·· Ван Пис: Остров Мечты / One Piece Film Z Special: Glorious Island [Special] [1 из 1] [Без хардсаба] [RUS(int), JAP, SUB] [2012 г., приключения, комедия, фэнтези, HDRip][hwp] Galfimbul 158411133151 MB 0 0 1419515069

16:44

25-Дек-14

Аниме | Rips ·· Остров Сокровищ / Takarajima / Treasure Island [TV] [1-11 из 26] [Без хардсаба] [JAP, SUB] [1978 г., Приключения, драма, мистика, кодомо., DVDRip] Galfimbul 28341395432.64 GB 0 0 1409054826

15:07

26-Авг-14

Ван-Пис | One Piece ·· Ван Пис: Остров Мечты / One Piece Film Z Special: Glorious Island / Guroriasu Airando [Special] [1 из 1] [Без хардсаба] [JAP, SUB] [2012 г., приключения, комедия, фэнтези, DVDRip] Galfimbul 283239674270 MB 0 0 1376145280

17:34

10-Авг-13

Обои, артбуки и др. ·· SANBE Kei / САМБЭ Кэй - Багряный Остров / Hohzuki Island [manga] [главы 1-27] [2008 г., драма, приключения, сэйнэн, триллер] [complete] Polarnik 268293843256 MB 0 0 1353947400

19:30

26-Ноя-12

Еще никто не оставлял запись к записи скачать торрент Остров Island . Будь первым!

!Обратная связь