Kimmy Meets an Old Friend! | BD 11 Eyes + OVA Subtitle Indonesia | Télécharger le fichier

Скачать через торрент Сенран Кагура: Летнее противостояние - Евы в купальниках Senran Kagura: Estival Versus - Mizugi Darake no Zenyasai бесплатно Аниме Все серии на русском torrent

Статистика раздачи
Размер:  7.6 GB   |    Зарегистрирован:  11 дней   |    .torrent скачан:  42 раза   |   
Раздают:  1   Качают:  1  
   
загрузка...
 
Автор Сообщение

Galfimbul

avatar Galfimbul


Сенран Кагура: Летнее противостояние - Евы в купальниках / Senran Kagura: Estival Versus - Mizugi Darake no Zenyasai

Год выпуска: 2015
Страна: Япония
Жанр: комедия, этти
Тип: OVA
Продолжительность: 30 мин.
Озвучка: нет

Русские субтитры: есть (отдельным файлом, формат .ass)
Перевод:

Gerale

Хардсаб: Нет
Режиссер: Уэда Сигэру
Студия: Artland

Описание: Бонус к релизу Nyuu Nyuu DX Pack Premium одноимённой игры.

Качество: Blu-Ray Remux
Формат: MKV
Видео кодек: AVC
Аудио кодек: FLAC
Видео: 1920x1080 (16:9) 23,976 fps ~34,6 Mbps 8bit
Аудио:
Jap FLAC, 48000Hz, ~720 Kbps, 2ch

Чаптеры присутствуют.
Общее
Уникальный идентификатор : 16782943512323317089257194203698360646 (0xCA047002EB676944470E44DBE9EF146)
Полное имя : Z:\Anime Release - working\Senran Kagura OVA\[anti-raws]Senran Kagura - Estival Versus - Mizugi Darake no Zenyasai[BDRemux].mkv
Формат : Matroska
Версия формата : Version 4 / Version 2
Размер файла : 7,60 Гбайт
Продолжительность : 30 м. 6 с.
Режим общего битрейта : Переменный
Общий поток : 36,1 Мбит/сек
Дата кодирования : UTC 2018-07-04 20:16:26
Программа кодирования : mkvmerge v23.0.0 ('The Bride Said No') 64-bit
Библиотека кодирования : libebml v1.3.6 + libmatroska v1.4.9

Видео
Идентификатор : 2
Формат : AVC
Формат/Информация : Advanced Video Codec
Профиль формата : [email protected]
Настройки формата : CABAC / 2 Ref Frames
Параметр CABAC формата : Да
Параметр RefFrames формата : 2 кадра
Идентификатор кодека : V_MPEG4/ISO/AVC
Продолжительность : 30 м. 6 с.
Вид битрейта : Переменный
Битрейт : 35,4 Мбит/сек
Ширина : 1920 пикселей
Высота : 1080 пикселей
Соотношение сторон : 16:9
Режим частоты кадров : Постоянный
Частота кадров : 23,976 (24000/1001) кадра/сек
Цветовое пространство : YUV
Субдискретизация насыщенности : 4:2:0
Битовая глубина : 8 бит
Тип развёртки : Прогрессивная
Бит/(Пиксели*Кадры) : 0.713
Размер потока : 7,45 Гбайт (98%)
Default : Нет
Forced : Нет

Аудио
Идентификатор : 1
Формат : FLAC
Формат/Информация : Free Lossless Audio Codec
Идентификатор кодека : A_FLAC
Продолжительность : 30 м. 6 с.
Вид битрейта : Переменный
Битрейт : 720 Кбит/сек
Каналы : 2 канала
Расположение каналов : Front: L R
Частота : 48,0 КГц
Частота кадров : 11,719 кадров/сек (4096 SPF)
Битовая глубина : 16 бит
Размер потока : 155 Мбайт (2%)
Библиотека кодирования : libFLAC 1.2.1 (UTC 2007-09-17)
Язык : Japanese
Default : Да
Forced : Нет

Меню
00:00:00.000 : en:00:00:00.000
00:12:38.091 : en:00:12:38.091
00:28:16.653 : en:00:28:16.653
...5147364
...5005358
--BDRip

Эта раздача - BDRemux


Трекер:  [ 04-Июл-2018 23:30 ]

  

Скачать .torrent

Размер .torrent файла 10 KB


Размер: 7.6 GB
Хэш (hash) релиза: cb0a90d37c8fdd4ebc00dbbd6c84ed3266ab3523
Подписка на обновления:

Еще никто не оставлял запись к записи скачать торрент Сенран Кагура: Летнее противостояние - Евы в купальниках Senran Kagura: Estival Versus - Mizugi Darake no Zenyasai . Будь первым!

!Обратная связь