GEBLINDDOEKT TEKENEN CHALLENGE!! [Blindfolded Drawing Challenge] ♥DeZoeteZusjes♥ | LUCiLLA iS VOOR 1 DAG DE BAAS 😳 | Bellinga Familie Vloggers #1158 | TOP 10 MEEST GENANTE MOMENTEN OP LIVE TV!

Скачать через торрент Каннские Львы - фильмы Cannes Lions - Films Фильм бесплатно в хорошем качестве torrent

Скачивайте на UnionPeer.org фильмы через торрент без регистрации. Новинки кино в хорошем качестве через торрент. На UnionPeer.org можно скачать через торрент фильмы 2014 и 2015 годов. Самые новые фильмы.

Скачать торрент Каннские Львы - фильмы Cannes Lions - Films бесплатно через .torrent фильм мультфильм сериал

Статистика раздачи
Размер:  2.45 GB   |    Зарегистрирован:  4 месяца 9 дней   |    .torrent скачан:  34 раза   |   
Раздают:  1  
   
загрузка...
 
Автор Сообщение

Galfimbul

avatar Galfimbul


Каннские Львы / Cannes Lions 2018. Раздел Фильмы

Дата/Год выпуска: 2018
Страна: Франция
Жанр: Рекламные ролики и мини-фильмы
Продолжительность: от 12 сек.до 19 мин.
Перевод: Отсутствует
Русские субтитры: нет

Доп. информация о субтитрах: Есть английские хардсабы к фильмам не на английском языке
Оригинальная аудиодорожка: английский
Описание: Ролики и короткие фильмы вошедшие в шортлист раздела Film фестиваля Cannes Lions 2018.
Скачаны с официального сайта фестиваля и переменованы по названиям. Также приложены pdf со списком фильмов и кредитами.

Доп. информация: В раздаче 203 фильма.

Мои раздачи этого раздела предыдущих годов:
Cannes Lions 2017
Cannes Lions 2016
Cannes Lions 2015
Cannes Lions 2014
Cannes Lions 2013
Cannes Lions 2012
Cannes Lions 2011

качество: WEBRip
формат: MP4
Видео: MPEG-4 AVC, 854x480, ~1000kbps, 24/25fps
Аудио: MPEG-4 AAC, stereo, 44.1/48kHz, ~64 Кбит/сек
Для одного фильма:

ОбщееПолное имя : Cannes Lions 2018\[GrandPrix] - IT'S A TIDE AD.mp4Формат : MPEG-4Профиль формата : Base MediaИдентификатор кодека : isom (isom/iso2/avc1/mp41)Размер файла : 6,00 МбайтПродолжительность : 45 с. 99 мс.Общий поток : 1117 Кбит/секПрограмма кодирования : Lavf57.81.100

ВидеоИдентификатор : 2Формат : AVCФормат/Информация : Advanced Video CodecПрофиль формата : Main@L3Параметр CABAC формата : ДаПараметр RefFrames формата : 4 кадраИдентификатор кодека : avc1Идентификатор кодека/Информация : Advanced Video CodingПродолжительность : 45 с. 45 мс.Битрейт : 1048 Кбит/секШирина : 854 пикселяВысота : 480 пикселейСоотношение сторон : 16:9Соотношение сторон в оригинале : 16:9Режим частоты кадров : ПостоянныйЧастота кадров : 23,976 (24000/1001) кадра/секЦветовое пространство : YUVСубдискретизация насыщенности : 4:2:0Битовая глубина : 8 битТип развёртки : ПрогрессивнаяБит/(Пиксели*Кадры) : 0.107Размер потока : 5,63 Мбайт (94%)Библиотека кодирования : x264 core 148 r2643 5c65704Настройки программы : cabac=1 / ref=3 / deblock=1:0:0 / analyse=0x1:0x111 / me=hex / subme=7 / psy=1 / psy_rd=1.00:0.00 / mixed_ref=1 / me_range=16 / chroma_me=1 / trellis=1 / 8x8dct=0 / cqm=0 / deadzone=21,11 / fast_pskip=1 / chroma_qp_offset=-2 / threads=12 / lookahead_threads=2 / sliced_threads=0 / nr=0 / decimate=1 / interlaced=0 / bluray_compat=0 / constrained_intra=0 / bframes=3 / b_pyramid=2 / b_adapt=1 / b_bias=0 / direct=1 / weightb=1 / open_gop=0 / weightp=2 / keyint=250 / keyint_min=23 / scenecut=40 / intra_refresh=0 / rc_lookahead=40 / rc=crf / mbtree=1 / crf=21.0 / qcomp=0.60 / qpmin=0 / qpmax=69 / qpstep=4 / vbv_maxrate=2600 / vbv_bufsize=5200 / crf_max=0.0 / nal_hrd=none / filler=0 / ip_ratio=1.40 / aq=1:1.00

АудиоИдентификатор : 1Формат : AACФормат/Информация : Advanced Audio CodecПрофиль формата : LCИдентификатор кодека : 40Продолжительность : 45 с. 99 мс.Вид битрейта : ПостоянныйБитрейт : 64,2 Кбит/секКаналы : 2 каналаРасположение каналов : Front: L RЧастота : 48,0 КГцЧастота кадров : 46,875 кадров/сек (1024 SPF)Метод сжатия : С потерямиРазмер потока : 353 Кбайт (6%)Default : ДаAlternateGroup/String : 1


Трекер:  [ 04-Июл-2018 19:12 ]

  

Скачать .torrent

Размер .torrent файла 25 KB


Размер: 2.45 GB
Хэш (hash) релиза: 04dcbc0de4d4848d4ff46a78be4add98a0461aa3
Подписка на обновления:

Еще никто не оставлял запись к записи скачать торрент Каннские Львы - фильмы Cannes Lions - Films . Будь первым!

!Обратная связь