09 Jun 2018 8,590 2,435 12 | House of Cards - Season 5 | download

Скачать через торрент музыку В смертельной опасности On Deadly Ground бесплатно без регистрации torrent

Статистика раздачи
Размер:  192 MB   |    Зарегистрирован:  2 месяца 20 дней   |    .torrent скачан:  24 раза   |   
Раздают:  1  
   
загрузка...
 
Автор Сообщение

Galfimbul

avatar Galfimbul


В смертельной опасности |
On Deadly Ground
Жанр: Score
Композитор: Basil Poledouris
Год выпуска диска: 1994
Страна-производитель диска: USA
Издатель (лейбл): Varese Sarabande
Номер по каталогу: VSD-5468
Аудиокодек: FLAC (*.flac)
Тип рипа: tracks+.cue
Битрейт аудио: lossless
Продолжительность: 00:29:31
Источник: собственный рип
Наличие сканов в содержимом раздачи: да, 600 dpi, jpg
Треклист:
1. Main Titles (02:19)
2. Aegis Flameout (01:43)
3. Forrest Found (01:35)
4. The Journey (07:57)
5. Forrest Decides/Horse Chase (03:54)
6. Jennings Goes Down (04:45)
7. The Warning/End Credits (07:18)
Exact Audio Copy V1.3 from 2. September 2016

EAC extraction logfile from 30. June 2018, 10:38

Basil Poledouris / On Deadly Ground

Used drive : ATAPI iHBS312 2 Adapter: 1 ID: 1

Read mode : SecureUtilize accurate stream : YesDefeat audio cache : YesMake use of C2 pointers : No

Read offset correction : 6Overread into Lead-In and Lead-Out : NoFill up missing offset samples with silence : YesDelete leading and trailing silent blocks : NoNull samples used in CRC calculations : YesUsed interface : Native Win32 interface for Win NT & 2000Gap handling : Appended to previous track

Used output format : User Defined EncoderSelected bitrate : 1024 kBit/sQuality : HighAdd ID3 tag : NoCommand line compressor : C:\Program Files\Exact Audio Copy\Flac\flac.exeAdditional command line options : -V -8 -T "Genre=%genre%" -T "Artist=%artist%" -T "Title=%title%" -T "Album=%albumtitle%" -T "Date=%year%" -T "Tracknumber=%tracknr%" -T "Comment=%comment%" %source%

TOC of the extracted CD

Track | Start | Length | Start sector | End sector --------------------------------------------------------- 1 | 0:00.00 | 2:19.25 | 0 | 10449 2 | 2:19.25 | 1:44.00 | 10450 | 18249 3 | 4:03.25 | 1:36.03 | 18250 | 25452 4 | 5:39.28 | 7:57.42 | 25453 | 61269 5 | 13:36.70 | 3:54.65 | 61270 | 78884 6 | 17:31.60 | 4:46.43 | 78885 | 100377 7 | 22:18.28 | 7:18.52 | 100378 | 133279

Track 1

Filename F:\torrent\On Deadly Ground_Basil Poledouris\score\01. Basil Poledouris - Main Titles.wav

Pre-gap length 0:00:02.00

Peak level 74.9 % Extraction speed 4.6 X Track quality 100.0 % Test CRC 3E4F6029 Copy CRC 3E4F6029 Accurately ripped (confidence 4) [49E89874] (AR v2) Copy OK

Track 2

Filename F:\torrent\On Deadly Ground_Basil Poledouris\score\02. Basil Poledouris - Aegis Flameout.wav

Peak level 91.6 % Extraction speed 4.5 X Track quality 100.0 % Test CRC F0A5B234 Copy CRC F0A5B234 Accurately ripped (confidence 4) [B5EFED0D] (AR v2) Copy OK

Track 3

Filename F:\torrent\On Deadly Ground_Basil Poledouris\score\03. Basil Poledouris - Forrest Found.wav

Peak level 56.9 % Extraction speed 4.5 X Track quality 100.0 % Test CRC 7345F4BB Copy CRC 7345F4BB Accurately ripped (confidence 4) [988D01A2] (AR v2) Copy OK

Track 4

Filename F:\torrent\On Deadly Ground_Basil Poledouris\score\04. Basil Poledouris - The Journey.wav

Peak level 94.7 % Extraction speed 6.6 X Track quality 100.0 % Test CRC 16CD58DA Copy CRC 16CD58DA Accurately ripped (confidence 4) [722B9B31] (AR v2) Copy OK

Track 5

Filename F:\torrent\On Deadly Ground_Basil Poledouris\score\05. Basil Poledouris - Forrest Decides , Horse Chase.wav

Peak level 90.1 % Extraction speed 6.8 X Track quality 100.0 % Test CRC 9EA8A86B Copy CRC 9EA8A86B Accurately ripped (confidence 4) [654065B6] (AR v2) Copy OK

Track 6

Filename F:\torrent\On Deadly Ground_Basil Poledouris\score\06. Basil Poledouris - Jennings Goes Down.wav

Peak level 92.8 % Extraction speed 7.4 X Track quality 100.0 % Test CRC ED14EDCF Copy CRC ED14EDCF Accurately ripped (confidence 4) [06BD9669] (AR v2) Copy OK

Track 7

Filename F:\torrent\On Deadly Ground_Basil Poledouris\score\07. Basil Poledouris - The Warning , End Credits.wav

Pre-gap length 0:00:01.30

Peak level 87.2 % Extraction speed 8.3 X Track quality 100.0 % Test CRC AA79A091 Copy CRC AA79A091 Accurately ripped (confidence 4) [284AD653] (AR v2) Copy OK

All tracks accurately ripped

No errors occurred

End of status report

---- CUETools DB Plugin V2.1.6

[CTDB TOCID: kceLRfxveFJEcZVjbFZulBhVfS0-] foundSubmit result: kceLRfxveFJEcZVjbFZulBhVfS0- has been confirmedTrack | CTDB Status 1 | ( 3/14) Accurately ripped 2 | ( 3/14) Accurately ripped 3 | ( 3/14) Accurately ripped 4 | ( 3/14) Accurately ripped 5 | ( 3/14) Accurately ripped 6 | ( 3/14) Accurately ripped 7 | ( 3/14) Accurately ripped

==== Log checksum 6E5D8C9343484D36F038FCBDFEDFB52A9DE5161B2D32BA9C76C4616A6455E65D ====
REM DATE 1994REM DISCID 3D06F107REM COMMENT "ExactAudioCopy v1.3"CATALOG 0000000000000PERFORMER "Basil Poledouris"TITLE "On Deadly Ground"REM COMPOSER ""FILE "01. Basil Poledouris - Main Titles.wav" WAVE TRACK 01 AUDIO TITLE "Main Titles" PERFORMER "Basil Poledouris" REM COMPOSER "" INDEX 01 00:00:00FILE "02. Basil Poledouris - Aegis Flameout.wav" WAVE TRACK 02 AUDIO TITLE "Aegis Flameout" PERFORMER "Basil Poledouris" REM COMPOSER "" INDEX 01 00:00:00FILE "03. Basil Poledouris - Forrest Found.wav" WAVE TRACK 03 AUDIO TITLE "Forrest Found" PERFORMER "Basil Poledouris" REM COMPOSER "" INDEX 01 00:00:00FILE "04. Basil Poledouris - The Journey.wav" WAVE TRACK 04 AUDIO TITLE "The Journey" PERFORMER "Basil Poledouris" REM COMPOSER "" INDEX 01 00:00:00FILE "05. Basil Poledouris - Forrest Decides , Horse Chase.wav" WAVE TRACK 05 AUDIO TITLE "Forrest Decides / Horse Chase" PERFORMER "Basil Poledouris" REM COMPOSER "" INDEX 01 00:00:00FILE "06. Basil Poledouris - Jennings Goes Down.wav" WAVE TRACK 06 AUDIO TITLE "Jennings Goes Down" PERFORMER "Basil Poledouris" REM COMPOSER "" INDEX 01 00:00:00 TRACK 07 AUDIO TITLE "The Warning / End Credits" PERFORMER "Basil Poledouris" REM COMPOSER "" INDEX 00 04:45:13FILE "07. Basil Poledouris - The Warning , End Credits.wav" WAVE INDEX 01 00:00:00


Трекер:  [ 04-Июл-2018 18:36 ]

  

Скачать .torrent

Размер .torrent файла 16 KB


Размер: 192 MB
Хэш (hash) релиза: df882c84d6de0a8b5b0f9256ffb476611d6488c5

Еще никто не оставлял запись к записи скачать торрент В смертельной опасности On Deadly Ground . Будь первым!

!Обратная связь