Briell Decker | Tru Calling: Schicksal reloaded! | Variados

Скачать через торрент В горы бесплатно Аниме Все серии на русском torrent

Статистика раздачи
Размер:  186 MB   |    Зарегистрирован:  12 дней   |    .torrent скачан:  27 раз   |   
Раздают:  1  
   
загрузка...
 
Автор Сообщение

Galfimbul

avatar Galfimbul



В горы (ТВ-3) / Yama no Susume: Third Season
Страна: Япония
Год выпуска: 2018
Жанр: комедия, повседневность
Тип: TV
Продолжительность: 13 эп., ~15 мин. эпизод
Режиссер: Ямамото Юсукэ
Студия: 8 bit
Описание:А вы любите лазать по горам? А может боитесь высоты? Ещё скажите, что лучше уютной постельки ничего нет! Поверьте, вы многое упускаете! Ведь горы это круто! Так и в этом аниме. Аой боится высоты, да и вообще заядлая хикка: из дома её не вытащить. Поступив в старшую школу, она внезапная встречается с Хинатой, своей подругой детства. А та прямо комсомолка-активистка. Она начинает бедняжку таскать по всяким активностям на природе, в том числе и по горам! Что-то щёлкает в голове Аой, и она понимает, что горы — это просто космос.

Время непреклонно летит вперёд, лето сменяется осенью, Аой и Хината находят новых друзей, с которыми можно лазать по горам. Вместе они начинают обдумывать следующую гору, которую им предстоит покорить. Сердце Хинаты всё сильнее и сильнее начинает пылать от её чувств к Аой, ведь та всеми силами начинает тренироваться, дабы подготовиться к следующей цели: плато горы Фудзи.
Смех, слёзы и лазанье по горам... «Манящие горы» сочетают в себе все эти эмоции. Аниме рассказывает про старшеклассниц, которые веселятся от души, покоряя различные горы. И вот наконец встречайте: третий сезон!
© Risens Team
World-Art | AniDB
Качество: HDTVRip
Тип релиза: Без хардсаба
Формат видео: MP4
Наличие линковки: Нет
Релиз: [Ohys-Raws]
Видео: 1280x720, x264, 1 714 kb/s VRB, 23.976 fps, 8 бит
Аудио: AAC, 208 kb/s VRB, 2 ch, 48.0 kHz; язык Японский
Субтитры: внешние, язык субтитров русский; Перевод: [Risens Team]
Format : MPEG-4Format profile : Base MediaCodec ID : isom (isom/avc1)File size : 186 MiBDuration : 13 min 30 sOverall bit rate mode : VariableOverall bit rate : 1 926 kb/sEncoded date : UTC 2018-07-02 17:04:50Tagged date : UTC 2018-07-02 17:04:50

VideoID : 1Format : AVCFormat/Info : Advanced Video CodecFormat profile : [email protected] settings : CABAC / 4 Ref FramesFormat settings, CABAC : YesFormat settings, ReFrames : 4 framesCodec ID : avc1Codec ID/Info : Advanced Video CodingDuration : 13 min 29 sBit rate : 1 714 kb/sMaximum bit rate : 10.4 Mb/sWidth : 1 280 pixelsHeight : 720 pixelsDisplay aspect ratio : 16:9Frame rate mode : ConstantFrame rate : 23.976 (24000/1001) FPSColor space : YUVChroma subsampling : 4:2:0Bit depth : 8 bitsScan type : ProgressiveBits/(Pixel*Frame) : 0.078Stream size : 165 MiB (89%)Writing library : x264 core 155 r2901 7d0ff22Encoding settings : cabac=1 / ref=3 / deblock=1:0:0 / analyse=0x1:0x111 / me=hex / subme=7 / psy=1 / psy_rd=1.00:0.00 / mixed_ref=1 / me_range=16 / chroma_me=1 / trellis=1 / 8x8dct=0 / cqm=0 / deadzone=21,11 / fast_pskip=1 / chroma_qp_offset=-2 / threads=18 / lookahead_threads=3 / sliced_threads=0 / nr=0 / decimate=1 / interlaced=0 / bluray_compat=0 / constrained_intra=0 / bframes=3 / b_pyramid=2 / b_adapt=1 / b_bias=0 / direct=1 / weightb=1 / open_gop=0 / weightp=2 / keyint=240 / keyint_min=1 / scenecut=40 / intra_refresh=0 / rc_lookahead=40 / rc=crf / mbtree=1 / crf=20.0 / qcomp=0.60 / qpmin=0 / qpmax=69 / qpstep=4 / ip_ratio=1.40 / aq=1:1.50Encoded date : UTC 2018-07-02 17:04:50Tagged date : UTC 2018-07-02 17:04:51Color range : LimitedColor primaries : BT.709Transfer characteristics : BT.709Matrix coefficients : BT.709

AudioID : 2Format : AACFormat/Info : Advanced Audio CodecFormat profile : LCCodec ID : mp4a-40-2Duration : 13 min 30 sBit rate mode : VariableBit rate : 208 kb/sMaximum bit rate : 255 kb/sChannel(s) : 2 channelsChannel positions : Front: L RSampling rate : 48.0 kHzFrame rate : 46.875 FPS (1024 SPF)Compression mode : LossyStream size : 20.1 MiB (11%)Language : JapaneseEncoded date : UTC 2018-07-02 17:00:17Tagged date : UTC 2018-07-02 17:04:51
1. Первое свидание на г. Цукуба?!
Эфир 2-го эпизода намечен на 10.07.2018

Трекер:  [ 04-Июл-2018 09:01 ]

  

Скачать .torrent

Размер .torrent файла 15 KB


Размер: 186 MB
Хэш (hash) релиза: b1d6b62dffe29b25a0c8a805167f2dde55fb6384
Подписка на обновления:

Торренты, похожие на В горы скачать торрент

Форум Название Автор Размер S L Добавлен
Аниме | HD Rips ·· В горы! Второй сезон / Yama no susume: Second Season / Encouragement of Climb Second Season [TV] [24 из 24] [Без хардсаба] [JAP, SUB] [2014 г., комедия, повседневность, BDRemux] [1080p] Galfimbul 9282653572786.45 GB 0 0 1475755351

15:02

6-Окт-16

Аниме | HD Rips ·· В горы! Радость подъема! / Yama no Susume / Encouragement of Climb [TV+Special] [12 + 1 из 12 + 1] [Без хардсаба] [JAP, SUB] [2012 г., комедия, повседневность, BDRemux] [1080p] Galfimbul 1510771422514.07 GB 0 0 1475748577

13:09

6-Окт-16

Аниме | HD Rips ·· В горы! Второй сезон (второй сезон) / Yama no susume: Second Season (Ямамото Юскэ) [TV] [24 из 24] [Без хардсаба] [JAP+SUB] [2014 г., Повседневность, WEBRip] [1080p] Galfimbul 77805309757.25 GB 0 0 1425653507

17:51

6-Мар-15

Аниме | HD Rips ·· В горы! Второй сезон (второй сезон) / Yama no susume: Second Season (Ямамото Юскэ) [TV] [24 из 24] [Без хардсаба] [JAP+SUB] [2014 г., Повседневность, HDTVRip] [720p] Galfimbul 49470587674.61 GB 0 0 1419788590

20:43

28-Дек-14

Аниме | HD Rips ·· В горы! Второй сезон / Yama no susume: Second Season [TV] [01 из 24] [Без хардсаба] [JAP+SUB] [2014 г., Повседневность, HDTVRip] [720p] Galfimbul 826772904788 MB 0 0 1409074287

20:31

26-Авг-14

Аниме | Rips ·· В горы! Радость подъема / Encouragement of Climb / Yama no Susume [TV+Special] [12+1 из 12+1] [без хардсаба] [RUS(int), JAP+SUB] [2013 г., комедия, повседневность, BDRip] Polarnik 592736972565 MB 0 0 1379752273

11:31

21-Сен-13

Аниме | HD Rips ·· В горы! Радость подъема! / Encouragement of Climb / Yama no Susume (Ямамото Юсукэ) [TV + Special] [12+1 из 12+1] [Без хардсаба] [RUS(ext), JAP+SUB] [2013 г., комедия, повседневность, BDRip] [720p] Polarnik 857551477818 MB 0 0 1372279069

23:37

26-Июн-13

Аниме | HD Rips ·· В горы! Радость подъема! / Yama no Susume [TV + Special] [12+1 из 12+1] [Без хардсаба] [RUS(int), JAP, SUB] [2013 г., приключения, спорт, WEBRip] [720p] Polarnik 774361230738 MB 0 0 1371198851

11:34

14-Июн-13

Аниме | HD Rips ·· В горы! Радость подъема! / Yama no Susume [TV] [01-09 из >12] [Без хардсаба] [RUS(int), JAP, SUB] [2013 г., приключения, спорт, WEBRip] [720p] Polarnik 496579649474 MB 0 0 1362392141

13:15

4-Мар-13

Аниме | HD Rips ·· В горы! Радость подъема / Encouragement of Climb / Yama no Susume (Ямамото Юсукэ) [TV] [1 из 13] [без хардсаба] [RUS(int), JAP+SUB] [2013 г., приключения, HDTVRip] [720p] [HD] Galfimbul 6727619964 MB 0 0 1357331820

23:37

4-Янв-13

Еще никто не оставлял запись к записи скачать торрент В горы . Будь первым!

!Обратная связь