Drop Dead Diva | Four Seasons in Havana | Isekai no Seikishi Monogatari

Скачать через торрент [VIDEO] Форма воды The Shape of Water бесплатно русская версия torrent активатор

Статистика раздачи
Размер:  2.44 GB   |    Зарегистрирован:  15 дней   |    .torrent скачан:  12 раз   |   
Раздают:  1  
   
загрузка...
 
Автор Сообщение

Galfimbul

avatar Galfimbul


Форма воды / The Shape of Water


Год выпуска: 2017
Страна: Канада, США
Жанр: приключения, драма, фэнтези
Продолжительность: 02:03:19
Перевод №1: русский Профессиональный (полное дублирование) BD EUR
Перевод №1: украинский Профессиональный (полное дублирование) BD EUR
Перевод №2: русский Авторский (одноголосый, закадровый) Сергей Визгунов
Оригинальная дорожка: Есть
Субтитры: русские (форсированные), (полные) английские (форсированные), (полные)
Режиссер: Гильермо дель Торо / Guillermo del Toro
В ролях: Салли Хокинс, Майкл Шеннон, Ричард Дженкинс, Октавия Спенсер, Майкл Стулбарг, Даг Джонс, Дэвид Хьюлетт, Ник Сирси, Стюарт Арнотт, Найджел Беннетт и другие .
Описание: Действие разворачивается в 1963 году. Главная героиня — немая уборщица в научной лаборатории. В стенах секретного учреждения идёт работа по изучению отловленного человека-амфибии. Женщина влюбляется в мутанта и помогает ему бежать…
Релиз группы

Качество: BDRip / рип с Blu-ray disc 1080p [EUR]
Формат: MP4
Видео кодек: H.264
Аудио кодек: AAC
Видео: 1280x690 AR:1.86 2310 kbps 23.976 fps
Аудио №1: [Russian] 2ch 48 kHz 128 kbps - [Dub] Профессиональный (полное дублирование) BD EUR
Аудио №2: [Ukrainian] 2ch 48 kHz 128 kbps - [Dub] Профессиональный (полное дублирование) BD EUR
Аудио №3: [Russian] 2ch 48 kHz 128 kbps - [VO] Авторский (одноголосый, закадровый) Сергей Визгунов
Аудио №4: [English] 2ch 48 kHz 128 kbps - Original
avs [info]: 1280x690p 1:1 @ 24000/1001 fps (cfr)
x264 [info]: using SAR=1/1
x264 [info]: using cpu capabilities: MMX2 SSE2Fast SSSE3 SSE4.2 AVX FMA3 BMI2 AVX2
x264 [info]: profile High, level 4.1

x264 [info]: frame I:1399 Avg QP:14.86 size: 86837
x264 [info]: frame P:40391 Avg QP:18.96 size: 24863
x264 [info]: frame B:135619 Avg QP:21.62 size: 7440
x264 [info]: consecutive B-frames: 2.2% 2.8% 10.2% 22.1% 24.3% 31.4% 4.4% 1.1% 0.7% 0.3% 0.3%
x264 [info]: mb I I16..4: 7.4% 72.1% 20.5%
x264 [info]: mb P I16..4: 0.8% 5.9% 1.2% P16..4: 37.2% 38.6% 8.6% 0.0% 0.0% skip: 7.7%
x264 [info]: mb B I16..4: 0.1% 0.7% 0.1% B16..8: 38.1% 16.3% 1.7% direct: 2.4% skip:40.7% L0:42.7% L1:48.4% BI: 8.8%
x264 [info]: 8x8 transform intra:73.6% inter:64.9%
x264 [info]: direct mvs spatial:96.2% temporal:3.8%
x264 [info]: coded y,uvDC,uvAC intra: 74.7% 71.6% 45.5% inter: 13.0% 10.6% 4.0%
x264 [info]: i16 v,h,dc,p: 36% 10% 4% 50%
x264 [info]: i8 v,h,dc,ddl,ddr,vr,hd,vl,hu: 13% 7% 8% 9% 12% 13% 13% 12% 12%
x264 [info]: i4 v,h,dc,ddl,ddr,vr,hd,vl,hu: 25% 7% 7% 8% 12% 11% 11% 9% 10%
x264 [info]: i8c dc,h,v,p: 32% 30% 22% 16%
x264 [info]: Weighted P-Frames: Y:4.9% UV:2.9%
x264 [info]: ref P L0: 54.5% 8.5% 16.7% 6.6% 4.8% 3.7% 3.1% 2.0% 0.2% 0.0%
x264 [info]: ref B L0: 79.9% 10.2% 4.8% 2.2% 1.5% 0.9% 0.4%
x264 [info]: ref B L1: 95.0% 5.0%
x264 [info]: kb/s:2307.96

encoded 177409 frames, 9.74 fps, 2307.97 kb/s
GeneralComplete name : K:\Torrents\The Shape of Water.2017.BDRip.x264.1280x.rip by Frost O.S.mp4Format : MPEG-4Format profile : 3GPP Release 6 GeneralCodec ID : 3gg6 (isom/3gg6/mp42)File size : 2.44 GiBDuration : 2 h 3 minOverall bit rate mode : VariableOverall bit rate : 2 829 kb/sEncoded date : UTC 2018-07-03 06:46:04Tagged date : UTC 2018-07-03 06:46:04Writing application : Yamb 2.1.0.0

VideoID : 1Format : AVCFormat/Info : Advanced Video CodecFormat profile : [email protected] settings : CABAC / 8 Ref FramesFormat settings, CABAC : YesFormat settings, RefFrames : 8 framesCodec ID : avc1Codec ID/Info : Advanced Video CodingDuration : 2 h 3 minBit rate : 2 310 kb/sMaximum bit rate : 8 202 kb/sWidth : 1 280 pixelsHeight : 690 pixelsDisplay aspect ratio : 1.85:1Frame rate mode : ConstantFrame rate : 23.976 (24000/1001) FPSColor space : YUVChroma subsampling : 4:2:0Bit depth : 8 bitsScan type : ProgressiveBits/(Pixel*Frame) : 0.109Stream size : 1.99 GiB (82%)Writing library : x264 core 152 r2851 ba24899Encoding settings : cabac=1 / ref=8 / deblock=1:-2:-2 / analyse=0x3:0x113 / me=umh / subme=11 / psy=1 / psy_rd=1.00:0.00 / mixed_ref=1 / me_range=32 / chroma_me=1 / trellis=2 / 8x8dct=1 / cqm=0 / deadzone=21,11 / fast_pskip=0 / chroma_qp_offset=-2 / threads=6 / lookahead_threads=1 / sliced_threads=0 / nr=0 / decimate=0 / interlaced=0 / bluray_compat=0 / constrained_intra=0 / bframes=10 / b_pyramid=2 / b_adapt=2 / b_bias=0 / direct=3 / weightb=1 / open_gop=0 / weightp=2 / keyint=250 / keyint_min=23 / scenecut=40 / intra_refresh=0 / rc=2pass / mbtree=0 / bitrate=2310 / ratetol=1.0 / qcomp=0.70 / qpmin=0 / qpmax=69 / qpstep=4 / cplxblur=20.0 / qblur=0.5 / ip_ratio=1.40 / pb_ratio=1.30 / aq=1:0.80Encoded date : UTC 2018-07-02 12:53:50Tagged date : UTC 2018-07-03 06:47:01Color range : LimitedColor primaries : BT.709Transfer characteristics : BT.709Matrix coefficients : BT.709

Audio #1ID : 2Format : AACFormat/Info : Advanced Audio CodecFormat profile : LCCodec ID : mp4a-40-2Duration : 2 h 3 minBit rate mode : VariableBit rate : 128 kb/sMaximum bit rate : 133 kb/sChannel(s) : 2 channelsChannel positions : Front: L RSampling rate : 48.0 kHzFrame rate : 46.875 FPS (1024 SPF)Compression mode : LossyStream size : 113 MiB (5%)Title : Russian / Dub, BD EUREncoded date : UTC 2018-07-01 16:10:27Tagged date : UTC 2018-07-03 06:47:01

Audio #2ID : 3Format : AACFormat/Info : Advanced Audio CodecFormat profile : LCCodec ID : mp4a-40-2Duration : 2 h 3 minBit rate mode : VariableBit rate : 128 kb/sMaximum bit rate : 134 kb/sChannel(s) : 2 channelsChannel positions : Front: L RSampling rate : 48.0 kHzFrame rate : 46.875 FPS (1024 SPF)Compression mode : LossyStream size : 113 MiB (5%)Title : Ukrainian / Dub, BD EUREncoded date : UTC 2018-07-01 16:16:16Tagged date : UTC 2018-07-03 06:47:01

Audio #3ID : 4Format : AACFormat/Info : Advanced Audio CodecFormat profile : LCCodec ID : mp4a-40-2Duration : 2 h 3 minBit rate mode : VariableBit rate : 128 kb/sMaximum bit rate : 138 kb/sChannel(s) : 2 channelsChannel positions : Front: L RSampling rate : 48.0 kHzFrame rate : 46.875 FPS (1024 SPF)Compression mode : LossyStream size : 113 MiB (5%)Title : Russian / VO, VizgunovEncoded date : UTC 2018-07-02 17:55:15Tagged date : UTC 2018-07-03 06:47:01

Audio #4ID : 5Format : AACFormat/Info : Advanced Audio CodecFormat profile : LCCodec ID : mp4a-40-2Duration : 2 h 3 minBit rate mode : VariableBit rate : 128 kb/sMaximum bit rate : 134 kb/sChannel(s) : 2 channelsChannel positions : Front: L RSampling rate : 48.0 kHzFrame rate : 46.875 FPS (1024 SPF)Compression mode : LossyStream size : 113 MiB (5%)Title : English / OriginalEncoded date : UTC 2018-07-01 16:01:15Tagged date : UTC 2018-07-03 06:47:01

Text #1ID : 6Format : Timed TextCodec ID : tx3gDuration : 2 h 3 minBit rate mode : VariableBit rate : 2 b/sStream size : 1.66 KiB (0%)Title : Russian / ForcedForced : NoEncoded date : UTC 2018-07-03 06:47:01Tagged date : UTC 2018-07-03 06:47:01

Text #2ID : 7Format : Timed TextCodec ID : tx3gDuration : 2 h 3 minBit rate mode : VariableBit rate : 76 b/sStream size : 68.4 KiB (0%)Title : Russian / FullForced : NoEncoded date : UTC 2018-07-03 06:47:01Tagged date : UTC 2018-07-03 06:47:01

Text #3ID : 8Format : Timed TextCodec ID : tx3gDuration : 1 h 53 minBit rate mode : VariableBit rate : 4 b/sStream size : 3.17 KiB (0%)Title : English / ForcedForced : NoEncoded date : UTC 2018-07-03 06:47:01Tagged date : UTC 2018-07-03 06:47:01

Text #4ID : 9Format : Timed TextCodec ID : tx3gDuration : 2 h 3 minBit rate mode : VariableBit rate : 58 b/sStream size : 52.0 KiB (0%)Title : English / FullForced : NoEncoded date : UTC 2018-07-03 06:47:01Tagged date : UTC 2018-07-03 06:47:01


Трекер:  [ 03-Июл-2018 10:36 ]

  

Скачать .torrent

Размер .torrent файла 12 KB


Размер: 2.44 GB
Хэш (hash) релиза: 46a2e7a5b61aa31a55d06e66eef1581458776f08

Еще никто не оставлял запись к записи скачать торрент [VIDEO] Форма воды The Shape of Water . Будь первым!

!Обратная связь