The Cosmopolitans | The Bronze Teeth 4 | Ein Grieche erobert Chicago

Скачать через торрент [VIDEO] Форма воды The Shape of Water бесплатно русская версия torrent активатор

Статистика раздачи
Размер:  1.74 GB   |    Зарегистрирован:  15 дней   |    .torrent скачан:  12 раз   |   
Раздают:  1  
   
загрузка...
 
Автор Сообщение

Galfimbul

avatar Galfimbul


Форма воды / The Shape of Water


Год выпуска: 2017
Страна: Канада, США
Жанр: приключения, драма, фэнтези
Продолжительность: 02:03:19
Перевод №1: русский Профессиональный (полное дублирование) BD EUR
Перевод №1: украинский Профессиональный (полное дублирование) BD EUR
Перевод №2: русский Авторский (одноголосый, закадровый) Сергей Визгунов
Оригинальная дорожка: Есть
Субтитры: русские (форсированные), (полные) английские (форсированные), (полные)
Режиссер: Гильермо дель Торо / Guillermo del Toro
В ролях: Салли Хокинс, Майкл Шеннон, Ричард Дженкинс, Октавия Спенсер, Майкл Стулбарг, Даг Джонс, Дэвид Хьюлетт, Ник Сирси, Стюарт Арнотт, Найджел Беннетт и другие .
Описание: Действие разворачивается в 1963 году. Главная героиня — немая уборщица в научной лаборатории. В стенах секретного учреждения идёт работа по изучению отловленного человека-амфибии. Женщина влюбляется в мутанта и помогает ему бежать…
Релиз группы

Качество: BDRip / рип с Blu-ray disc 1080p [EUR]
Формат: MP4
Видео кодек: H.264
Аудио кодек: AAC
Видео: 960x518 AR:1.85 1500 kbps 23.976 fps
Аудио №1: [Russian] 2ch 48 kHz 128 kbps - [Dub] Профессиональный (полное дублирование) BD EUR
Аудио №2: [Ukrainian] 2ch 48 kHz 128 kbps - [Dub] Профессиональный (полное дублирование) BD EUR
Аудио №3: [Russian] 2ch 48 kHz 128 kbps - [VO] Авторский (одноголосый, закадровый) Сергей Визгунов
Аудио №4: [English] 2ch 48 kHz 128 kbps - Original
avs [info]: 960x518p 1:1 @ 24000/1001 fps (cfr)
x264 [info]: using SAR=1/1
x264 [info]: using cpu capabilities: MMX2 SSE2Fast SSSE3 SSE4.2 AVX FMA3 BMI2 AVX2
x264 [info]: profile High, level 4.1

x264 [info]: frame I:1422 Avg QP:14.85 size: 56339
x264 [info]: frame P:40076 Avg QP:18.95 size: 16220
x264 [info]: frame B:135911 Avg QP:21.58 size: 4829
x264 [info]: consecutive B-frames: 1.9% 3.5% 9.4% 22.2% 24.6% 29.7% 5.3% 1.2% 1.0% 0.5% 0.4% 0.2%
x264 [info]: mb I I16..4: 6.7% 67.5% 25.9%
x264 [info]: mb P I16..4: 0.7% 6.3% 1.4% P16..4: 35.6% 38.4% 10.3% 0.0% 0.0% skip: 7.2%
x264 [info]: mb B I16..4: 0.1% 0.7% 0.1% B16..8: 35.9% 17.1% 2.3% direct: 3.0% skip:41.0% L0:41.4% L1:46.1% BI:12.4%
x264 [info]: 8x8 transform intra:73.5% inter:59.0%
x264 [info]: direct mvs spatial:94.5% temporal:5.5%
x264 [info]: coded y,uvDC,uvAC intra: 78.6% 74.2% 51.2% inter: 14.0% 10.9% 4.9%
x264 [info]: i16 v,h,dc,p: 30% 12% 5% 53%
x264 [info]: i8 v,h,dc,ddl,ddr,vr,hd,vl,hu: 14% 8% 9% 9% 12% 13% 12% 12% 13%
x264 [info]: i4 v,h,dc,ddl,ddr,vr,hd,vl,hu: 17% 9% 7% 9% 13% 12% 12% 10% 12%
x264 [info]: i8c dc,h,v,p: 35% 28% 22% 15%
x264 [info]: Weighted P-Frames: Y:5.4% UV:2.8%
x264 [info]: ref P L0: 54.8% 9.2% 16.1% 6.6% 4.5% 3.6% 2.9% 2.0% 0.2% 0.0%
x264 [info]: ref B L0: 79.6% 10.1% 4.9% 2.3% 1.6% 0.9% 0.4%
x264 [info]: ref B L1: 94.8% 5.2%
x264 [info]: kb/s:1498.97

encoded 177409 frames, 15.96 fps, 1498.97 kb/s
GeneralComplete name : K:\Torrents\The Shape of Water.2017.BDRip.x264.960x.rip by Frost O.S.mp4Format : MPEG-4Format profile : 3GPP Release 6 GeneralCodec ID : 3gg6 (isom/3gg6/mp42)File size : 1.74 GiBDuration : 2 h 3 minOverall bit rate mode : VariableOverall bit rate : 2 020 kb/sEncoded date : UTC 2018-07-03 06:55:45Tagged date : UTC 2018-07-03 06:55:45

VideoID : 1Format : AVCFormat/Info : Advanced Video CodecFormat profile : [email protected] settings : CABAC / 8 Ref FramesFormat settings, CABAC : YesFormat settings, RefFrames : 8 framesCodec ID : avc1Codec ID/Info : Advanced Video CodingDuration : 2 h 3 minBit rate : 1 500 kb/sMaximum bit rate : 5 763 kb/sWidth : 960 pixelsHeight : 518 pixelsDisplay aspect ratio : 1.85:1Frame rate mode : ConstantFrame rate : 23.976 (24000/1001) FPSColor space : YUVChroma subsampling : 4:2:0Bit depth : 8 bitsScan type : ProgressiveBits/(Pixel*Frame) : 0.126Stream size : 1.29 GiB (74%)Writing library : x264 core 152 r2851 ba24899Encoding settings : cabac=1 / ref=8 / deblock=1:-2:-2 / analyse=0x3:0x113 / me=umh / subme=11 / psy=1 / psy_rd=1.00:0.00 / mixed_ref=1 / me_range=32 / chroma_me=1 / trellis=2 / 8x8dct=1 / cqm=0 / deadzone=21,11 / fast_pskip=0 / chroma_qp_offset=-2 / threads=6 / lookahead_threads=1 / sliced_threads=0 / nr=0 / decimate=0 / interlaced=0 / bluray_compat=0 / constrained_intra=0 / bframes=11 / b_pyramid=2 / b_adapt=2 / b_bias=0 / direct=3 / weightb=1 / open_gop=0 / weightp=2 / keyint=250 / keyint_min=23 / scenecut=40 / intra_refresh=0 / rc=2pass / mbtree=0 / bitrate=1500 / ratetol=1.0 / qcomp=0.70 / qpmin=0 / qpmax=69 / qpstep=4 / cplxblur=20.0 / qblur=0.5 / ip_ratio=1.40 / pb_ratio=1.30 / aq=1:0.70Encoded date : UTC 2018-07-02 17:42:17Tagged date : UTC 2018-07-03 06:56:11Color range : LimitedColor primaries : BT.709Transfer characteristics : BT.709Matrix coefficients : BT.709

Audio #1ID : 2Format : AACFormat/Info : Advanced Audio CodecFormat profile : LCCodec ID : mp4a-40-2Duration : 2 h 3 minBit rate mode : VariableBit rate : 128 kb/sMaximum bit rate : 133 kb/sChannel(s) : 2 channelsChannel positions : Front: L RSampling rate : 48.0 kHzFrame rate : 46.875 FPS (1024 SPF)Compression mode : LossyStream size : 113 MiB (6%)Title : Russian / Dub, BD EUREncoded date : UTC 2018-07-01 16:10:27Tagged date : UTC 2018-07-03 06:56:11

Audio #2ID : 3Format : AACFormat/Info : Advanced Audio CodecFormat profile : LCCodec ID : mp4a-40-2Duration : 2 h 3 minBit rate mode : VariableBit rate : 128 kb/sMaximum bit rate : 134 kb/sChannel(s) : 2 channelsChannel positions : Front: L RSampling rate : 48.0 kHzFrame rate : 46.875 FPS (1024 SPF)Compression mode : LossyStream size : 113 MiB (6%)Title : Ukrainian / Dub, BD EUREncoded date : UTC 2018-07-01 16:16:16Tagged date : UTC 2018-07-03 06:56:11

Audio #3ID : 4Format : AACFormat/Info : Advanced Audio CodecFormat profile : LCCodec ID : mp4a-40-2Duration : 2 h 3 minBit rate mode : VariableBit rate : 128 kb/sMaximum bit rate : 138 kb/sChannel(s) : 2 channelsChannel positions : Front: L RSampling rate : 48.0 kHzFrame rate : 46.875 FPS (1024 SPF)Compression mode : LossyStream size : 113 MiB (6%)Title : Russian / VO, VizgunovEncoded date : UTC 2018-07-02 17:55:15Tagged date : UTC 2018-07-03 06:56:11

Audio #4ID : 5Format : AACFormat/Info : Advanced Audio CodecFormat profile : LCCodec ID : mp4a-40-2Duration : 2 h 3 minBit rate mode : VariableBit rate : 128 kb/sMaximum bit rate : 134 kb/sChannel(s) : 2 channelsChannel positions : Front: L RSampling rate : 48.0 kHzFrame rate : 46.875 FPS (1024 SPF)Compression mode : LossyStream size : 113 MiB (6%)Title : English / OriginalEncoded date : UTC 2018-07-01 16:01:15Tagged date : UTC 2018-07-03 06:56:11

Text #1ID : 6Format : Timed TextCodec ID : tx3gDuration : 2 h 3 minBit rate mode : VariableBit rate : 2 b/sStream size : 1.66 KiB (0%)Title : Russian / ForcedForced : NoEncoded date : UTC 2018-07-03 06:56:11Tagged date : UTC 2018-07-03 06:56:11

Text #2ID : 7Format : Timed TextCodec ID : tx3gDuration : 2 h 3 minBit rate mode : VariableBit rate : 76 b/sStream size : 68.4 KiB (0%)Title : Russian / FullForced : NoEncoded date : UTC 2018-07-03 06:56:11Tagged date : UTC 2018-07-03 06:56:11

Text #3ID : 8Format : Timed TextCodec ID : tx3gDuration : 1 h 53 minBit rate mode : VariableBit rate : 4 b/sStream size : 3.17 KiB (0%)Title : English / ForcedForced : NoEncoded date : UTC 2018-07-03 06:56:11Tagged date : UTC 2018-07-03 06:56:11

Text #4ID : 9Format : Timed TextCodec ID : tx3gDuration : 2 h 3 minBit rate mode : VariableBit rate : 58 b/sStream size : 52.0 KiB (0%)Title : English / FullForced : NoEncoded date : UTC 2018-07-03 06:56:11Tagged date : UTC 2018-07-03 06:56:11


Трекер:  [ 03-Июл-2018 10:36 ]

  

Скачать .torrent

Размер .torrent файла 18 KB


Размер: 1.74 GB
Хэш (hash) релиза: 2a69e49ccc33dbeab9d3c42e77edfa5c00c14678

Еще никто не оставлял запись к записи скачать торрент [VIDEO] Форма воды The Shape of Water . Будь первым!

!Обратная связь