Takidani Koukou Manga Club | CT Colonography: A Guide for Clinical Practice | SONG REQUESTS

Скачать через торрент [VIDEO] Форма воды The Shape of Water бесплатно русская версия torrent активатор

Статистика раздачи
Размер:  561 MB   |    Зарегистрирован:  2 месяца 18 дней   |    .torrent скачан:  12 раз   |   
Раздают:  1  
   
загрузка...
 
Автор Сообщение

Galfimbul

avatar Galfimbul


Форма воды / The Shape of Water


Год выпуска: 2017
Страна: Канада, США
Жанр: приключения, драма, фэнтези
Продолжительность: 02:03:19
Перевод: русский Профессиональный (полное дублирование) BD EUR
Субтитры: нет
Режиссер: Гильермо дель Торо / Guillermo del Toro
В ролях: Салли Хокинс, Майкл Шеннон, Ричард Дженкинс, Октавия Спенсер, Майкл Стулбарг, Даг Джонс, Дэвид Хьюлетт, Ник Сирси, Стюарт Арнотт, Найджел Беннетт и другие .
Описание: Действие разворачивается в 1963 году. Главная героиня — немая уборщица в научной лаборатории. В стенах секретного учреждения идёт работа по изучению отловленного человека-амфибии. Женщина влюбляется в мутанта и помогает ему бежать…
Релиз группы

Качество: BDRip / рип с Blu-ray disc 1080p [EUR]
Формат: MP4
Видео кодек: XviD
Аудио кодек: AAC
Видео: 480x256 AR:1.88 505 kbps 23.976 fps
Аудио: [Russian] 2ch 48 kHz 128 kbps - [Dub] Профессиональный (полное дублирование) BD EUR
GeneralComplete name : K:\Torrents\The Shape of Water.2017.BDRip.XviD.480x.rip by Frost O.S.mp4Format : MPEG-4Format profile : 3GPP Media Release 5Codec ID : 3gp5 (isom/3gp5/3gp4/mp41/mp42)File size : 561 MiBDuration : 2 h 3 minOverall bit rate mode : VariableOverall bit rate : 637 kb/sEncoded date : UTC 2018-07-03 07:01:41Tagged date : UTC 2018-07-03 07:01:41

VideoID : 1Format : MPEG-4 VisualFormat profile : Advanced [email protected] settings : BVOP / Custom MatrixFormat settings, BVOP : YesFormat settings, QPel : NoFormat settings, GMC : No warppointsFormat settings, Matrix : CustomCodec ID : mp4v-20Duration : 2 h 3 minBit rate mode : VariableBit rate : 505 kb/sMaximum bit rate : 2 645 kb/sWidth : 480 pixelsHeight : 256 pixelsDisplay aspect ratio : 1.85:1Frame rate mode : ConstantFrame rate : 23.976 (24000/1001) FPSColor space : YUVChroma subsampling : 4:2:0Bit depth : 8 bitsScan type : ProgressiveCompression mode : LossyBits/(Pixel*Frame) : 0.171Stream size : 445 MiB (79%)Title : [email protected]-DEV-rev248-g39d5978-masterWriting library : XviD 1.2.1 (UTC 2008-12-04)Encoded date : UTC 2018-07-01 19:06:16Tagged date : UTC 2018-07-03 07:01:45

AudioID : 2Format : AACFormat/Info : Advanced Audio CodecFormat profile : LCCodec ID : mp4a-40-2Duration : 2 h 3 minBit rate mode : VariableBit rate : 128 kb/sMaximum bit rate : 133 kb/sChannel(s) : 2 channelsChannel positions : Front: L RSampling rate : 48.0 kHzFrame rate : 46.875 FPS (1024 SPF)Compression mode : LossyStream size : 113 MiB (20%)Title : Russian / Dub, BD EUREncoded date : UTC 2018-07-01 16:10:27Tagged date : UTC 2018-07-03 07:01:45


Трекер:  [ 03-Июл-2018 10:36 ]

  

Скачать .torrent

Размер .torrent файла 11 KB


Размер: 561 MB
Хэш (hash) релиза: 2ddc5e09cc0c6b5c04366e39f2b09c5350fa1457

Еще никто не оставлял запись к записи скачать торрент [VIDEO] Форма воды The Shape of Water . Будь первым!

!Обратная связь