Internet Download Manager IDM 6 25 Build 20 Registered 32bit + 64bit Patch CrackingPatching | Soukou no Strain | Jim Carrey

Скачать через торрент Комик в городе. Санкт-Петербург Фильм бесплатно в хорошем качестве torrent

Скачивайте на UnionPeer.org фильмы через торрент без регистрации. Новинки кино в хорошем качестве через торрент. На UnionPeer.org можно скачать через торрент фильмы 2014 и 2015 годов. Самые новые фильмы.

Скачать торрент Комик в городе. Санкт-Петербург бесплатно через .torrent фильм мультфильм сериал

Статистика раздачи
Размер:  673 MB   |    Зарегистрирован:  14 дней   |    .torrent скачан:  30 раз   |   
Раздают:  1   Качают:  1  
   
загрузка...
 
Автор Сообщение

Galfimbul

avatar Galfimbul


Комик в городе. Санкт-Петербург (выпуск 1-й от 04-03-2018)

Дата/Год выпуска: 2018
Страна: Россия
Жанр: Юмор
Продолжительность: 00:21:47
Перевод: Не требуется
Режиссер: Роман Новиков
Телеканал: ТНТ HD
В ролях: Руслан Белый

Описание: До появления шоу «Комик в городе» с экрана телевизора про Россию всегда шутили из Москвы. Руслан Белый решил изменить порядок вещей. Он отправится в большой тур по России, изучит каждый отдельно взятый город и будет стебать его со сцены перед местными жителями.

качество: HDTV 1080i
формат: MKV
Видео: 1920x1080 (16:9), 25.000 fps, AVC ~4 500 kbps avg
Аудио: AC3, 192 kbps, 48 kHz, 2 ch
GeneralUnique ID : 185269656952198012359773452824494504319 (0x8B61A354B15874479813DD146940797F)Complete name : D:\Humor\Stand Up\Komik v gorode.Vypusk 01.Sankt-Peterburg.mkvFormat : MatroskaFormat version : Version 2File size : 673 MiBDuration : 21mn 47sOverall bit rate mode : VariableOverall bit rate : 4 315 KbpsEncoded date : UTC 2018-07-02 18:17:20Writing application : mkvmerge v6.1.0 ('Old Devil') built on Mar 4 2013 09:10:42Writing library : libebml v1.3.0 + libmatroska v1.4.0

VideoID : 1Format : AVCFormat/Info : Advanced Video CodecFormat profile : [email protected] settings, CABAC : YesFormat settings, ReFrames : 4 framesCodec ID : V_MPEG4/ISO/AVCDuration : 21mn 47sBit rate mode : VariableBit rate : 4 037 KbpsMaximum bit rate : 4 500 KbpsWidth : 1 920 pixelsHeight : 1 080 pixelsDisplay aspect ratio : 16:9Frame rate mode : ConstantFrame rate : 25.000 fpsColor space : YUVChroma subsampling : 4:2:0Bit depth : 8 bitsScan type : ProgressiveBits/(Pixel*Frame) : 0.078Stream size : 629 MiB (94%)Default : YesForced : No

AudioID : 2Format : AC-3Format/Info : Audio Coding 3Mode extension : CM (complete main)Format settings, Endianness : BigCodec ID : A_AC3Duration : 21mn 47sBit rate mode : ConstantBit rate : 192 KbpsChannel count : 2 channelsChannel positions : Front: L RSampling rate : 48.0 KHzBit depth : 16 bitsCompression mode : LossyStream size : 29.9 MiB (4%)Default : YesForced : No


Трекер:  [ 02-Июл-2018 21:42 ]

  

Скачать .torrent

Размер .torrent файла 13 KB


Размер: 673 MB
Хэш (hash) релиза: cf8cca50b91225bbdb27155266553a810f9a98a5
Подписка на обновления:

Еще никто не оставлял запись к записи скачать торрент Комик в городе. Санкт-Петербург . Будь первым!

!Обратная связь