buscounbar | Galaxy W (I8150) | Playboy USA – Full Year 2014 Issues Collection ()

Скачать через торрент Он – дракон Фильм бесплатно в хорошем качестве torrent

Скачивайте на UnionPeer.org фильмы через торрент без регистрации. Новинки кино в хорошем качестве через торрент. На UnionPeer.org можно скачать через торрент фильмы 2014 и 2015 годов. Самые новые фильмы.

Скачать торрент Он – дракон бесплатно через .torrent фильм мультфильм сериал

Статистика раздачи
Размер:  4.16 GB   |    Зарегистрирован:  2 месяца 21 день   |    .torrent скачан:  36 раз   |   
Раздают:  1  
   
загрузка...
 
Автор Сообщение

Galfimbul

avatar Galfimbul


Он – дракон

Страна: Россия
Студия: Базелевс Продакшн
Жанр: фэнтези
Год выпуска: 2015
Продолжительность: 01:42:48

Перевод: Не требуется
Субтитры: итальянские (форс.), итальянские
Оригинальная аудиодорожка: русская

Режиссер: Индар Джендубаев

В ролях: Мария Поезжаева, Матвей Лыков, Станислав Любшин, Иева Андреевайте, Петр Романов, Андрей Лебединский, Марта Тимофеева, Иво Господинов, Егор Зубарчук, Виктория Рунцова

Описание: В разгар свадьбы княжну Мирославу похищает дракон, унося в свой замок на острове. В прошлом остались родные, жених, теперь только каменный плен в компании прекрасного Армана. Но кто он, и как оказался на острове? Мира поймет это слишком поздно: любовь к нему, человеку-дракону, откроет ей горькую истину — любить страшно.

Меню: есть, анимированное

Сэмпл

Тип релиза: DVD5
Контейнер: DVD-Video

Видео: PAL 16:9 (720x576(0.453)) MPEG Video, 25,000 кадр/сек, 4700 Кбит/сек
Аудио: Italian (Dolby AC-3, 6 ch) 448 Кбит/сек, 48.0 КГц
Аудио 2: Russian (Dolby AC-3, 6 ch) 448 Кбит/сек, 48.0 КГц
Лицензионный диск был скачан с зарубежного сайта. Никаких изменений не вносилось!
Title: DRAGON
Disk size: 4.16 Gb ( 4 357 096,00 KBytes )
DVD Type: DVD-5
Enabled regions: 1,2,3,4,5,6,7,8

VTS_01:
Title Play Length: 00:00:24
Video: PAL 16:9 (720x576) VBR,Auto Letterboxed
Audio (1):
Not specified (Dolby AC3, 2 ch)
Subtitles (0)

VTS_02:
Title Play Length: 01:42:48
Video: PAL 16:9 (720x576) VBR,Auto Letterboxed
Audio (2):
Italiano (Dolby AC3, 6 ch)
Russian (Dolby AC3, 6 ch)
Subtitles (2):
Italiano
Italiano

* Menus Information *

VIDEO_TS Menu
Video:
PAL 4:3 (720x576) VBR
Audio (0)
English Language Unit :
Title Menu

VTS_01 Menu
Video:
PAL 16:9 (720x576) VBR
Auto Letterboxed
Audio (0)
English Language Unit :
Root Menu

VTS_02 Menu
Video:
PAL 16:9 (720x576) VBR
Auto Letterboxed
Audio (1):
Not specified (Dolby AC3, 2 ch)
English Language Unit :
Root Menu
Общее
Полное имя : DRAGON\VIDEO_TS\VTS_02_1.VOB
Формат : MPEG-PS
Размер файла : 1024 Мбайт
Продолжительность : 25 м. 8 с.
Общий поток : 5694 Кбит/сек

Видео
Идентификатор : 224 (0xE0)
Формат : MPEG Video
Версия формата : Version 2
Профиль формата : [email protected]
Настройки формата : CustomMatrix / BVOP
Параметр BVOP формата : Да
Параметр матрицы формата : Выборочная
Параметр GOP формата : M=3, N=12
Продолжительность : 25 м. 8 с.
Вид битрейта : Постоянный
Битрейт : 4700 Кбит/сек
Ширина : 720 пикселей
Высота : 576 пикселей
Соотношение сторон : 16:9
Частота кадров : 25,000 кадров/сек
Стандарт вещания : PAL
Цветовое пространство : YUV
Субдискретизация насыщенности : 4:2:0
Битовая глубина : 8 бит
Тип развёртки : Прогрессивная
Метод сжатия : С потерями
Бит/(Пиксели*Кадры) : 0.453
Временной код первого кадра : 00:00:00:00
Оригинал временного кода : Group of pictures header
GOP, открыто/закрыто : Закрыто
Размер потока : 842 Мбайт (82%)
Основные цвета : BT.601 PAL
Характеристики трансфера : BT.470 System B, BT.470 System G
Коэффициенты матрицы : BT.601

Аудио #1
Идентификатор : 189 (0xBD)-128 (0x80)
Формат : AC-3
Формат/Информация : Audio Coding 3
Режим смешивания : DVD-Video
Продолжительность : 25 м. 8 с.
Вид битрейта : Постоянный
Битрейт : 448 Кбит/сек
Каналы : 6 каналов
Расположение каналов : Front: L C R, Side: L R, LFE
Частота : 48,0 КГц
Частота кадров : 31,250 кадров/сек (1536 SPF)
Битовая глубина : 16 бит
Метод сжатия : С потерями
Размер потока : 80,6 Мбайт (8%)
ServiceKind/String : Complete Main

Аудио #2
Идентификатор : 189 (0xBD)-129 (0x81)
Формат : AC-3
Формат/Информация : Audio Coding 3
Режим смешивания : DVD-Video
Продолжительность : 25 м. 8 с.
Вид битрейта : Постоянный
Битрейт : 448 Кбит/сек
Каналы : 6 каналов
Расположение каналов : Front: L C R, Side: L R, LFE
Частота : 48,0 КГц
Частота кадров : 31,250 кадров/сек (1536 SPF)
Битовая глубина : 16 бит
Метод сжатия : С потерями
Размер потока : 80,6 Мбайт (8%)
ServiceKind/String : Complete Main

Текст #1
Идентификатор : 189 (0xBD)-35 (0x23)
Формат : RLE
Формат/Информация : Run-length encoding
Режим смешивания : DVD-Video

Текст #2
Идентификатор : 189 (0xBD)-36 (0x24)
Формат : RLE
Формат/Информация : Run-length encoding
Режим смешивания : DVD-Video


Трекер:  [ 02-Июл-2018 15:30 ]

  

Скачать .torrent

Размер .torrent файла 11 KB


Размер: 4.16 GB
Хэш (hash) релиза: 175a2855ae168abc17af5e0e7a21b4ba137d4837
Подписка на обновления:

Торренты, похожие на Он – дракон скачать торрент

Форум Название Автор Размер S L Добавлен
3D Фильмы, кино ·· Он – дракон в 3Д / Dragon Love Is A Scary Tale 3D (Индар Джендубаев) [2015, фэнтези, BDrip, 1080p] OverUnder / Вертикальная стереопара Galfimbul 78821472187.34 GB 0 0 1473189982

22:26

6-Сен-16

3D Фильмы, кино ·· Он – дракон в 3Д / He is Dragon 3D (Индар Джендубаев) [2015, Фэнтези, Мелодрама, BDrip] Half OverUnder / Вертикальная анаморфная стереопара Galfimbul 44324864174.13 GB 0 0 1473189973

22:26

6-Сен-16

Российские фильмы до 2016 ·· Он – дракон (Индар Джендубаев) [2015, Россия, фэнтези, BDRip-AVC] Galfimbul 15513832321.44 GB 0 0 1454681106

17:05

5-Фев-16

Российские фильмы до 2016 ·· Он – дракон (Индар Джендубаев) [2015, фэнтези, BDRip 720p] Лицензия Galfimbul 61413098205.72 GB 0 0 1454647243

07:40

5-Фев-16

Российские фильмы до 2016 ·· Он – дракон (Индар Джендубаев) [2015, фэнтези, Blu-ray 1080p] Лицензия Galfimbul 1960767131618.26 GB 0 0 1454645375

07:09

5-Фев-16

Российские фильмы до 2016 ·· Он – дракон (Индар Джендубаев) [2015, Фэнтези, WEB-DLRip] Galfimbul 15683993601.46 GB 0 0 1451520172

03:02

31-Дек-15

Российские фильмы до 2016 ·· Он – дракон (Индар Джендубаев) [2015, фэнтези, WEB-DL 1080p] iTunes Galfimbul 38575167973.59 GB 0 0 1451514064

01:21

31-Дек-15

Российские фильмы до 2016 ·· Он – дракон (Индар Джендубаев) [2015, фэнтези, WEB-DL 720p] iTunes Galfimbul 35125800323.27 GB 0 0 1451513996

01:19

31-Дек-15

Российские фильмы до 2016 ·· Он – дракон (Индар Джендубаев) [2015, фэнтези, WEB-DLRip] iTunes Galfimbul 15683993601.46 GB 0 0 1451513929

01:18

31-Дек-15

Еще никто не оставлял запись к записи скачать торрент Он – дракон . Будь первым!

!Обратная связь