The Flash | Archer's Voice | Scarica APK

Скачать через торрент Боевые Атлеты: Победа Battle Athletess Daiundoukai бесплатно Аниме Все серии на русском torrent

Статистика раздачи
Размер:  9.2 GB   |    Зарегистрирован:  14 дней   |    .torrent скачан:  29 раз   |   
Раздают:  1  
   
загрузка...
 
Автор Сообщение

Galfimbul

avatar Galfimbul


Боевые Атлеты: Победа / Battle Athletess Daiundoukai / Battle Athletes Victory
Страна: Япония
Год выпуска: 1997-1998
Жанр: фантастика, спорт, комедия
Тип: TV
Продолжительность: 26 эп. по ~20 мин.
Режиссёр: Акияма Кацухито
Автор оригинала: Хаяси Хироки
Студия: AIC
Озвучка:
Одноголосная (муж.) DemonOFmooN 1-8 эп.
Субтитры: есть
русские (внешние) полные (srt)
от Bella, Terramorpher, Алексей Самолук aka Fuzzy, Сергей В(СПБ)
Субтитры для первой серии, формат ASS
Описание: Земля пережила страшную катастрофу, 99% человечества была уничтожена, но по прошествию времени оно возродилось из пепла и начала отстраивать мир заново, расселилось по другим планетам солнечной системы, в общем дела пошли в гору. И новой профилирующей идеей человечества стал спорт, а точнее тотальная его популяризация, что повлекло за собой явлению мира всегалактического турнира на звание Космической Красавицы. И девушка по имени Акари поставила перед собой цель стать обладательницей сего громкого титула.
Информационные ссылки: AniDB | MyAnimeList | World Art
Доп. информация: в данном релизе во всех серия отсутствую опенги, эндинги и превью.
Качество: DVDRip (US DVD R1)
Совместимость с бытовыми плеерами: Нет
Наличие линковки: НЕТ
Тип видео: без хардсаба
Формат: MKV
Видео: x264, 704x480(анаморф @644x480) / (1-6, 8, 11, 12 эп.) 704x472(анаморф @644x472), (4/3), ~2100кбит/с, 23,976fps, 10 bit
Аудио #1 (внешняя) русская - Vorbis/AAC, 2 ch, 192кбит/с, 48000Hz
Аудио #2 (в контейнере) японская - AC3, 2 ch, 384кбит/с, 48000Hz
* Чтобы смотреть с озвучкой, необходимо из папки Rus sound переписать файлы в папку, где находятся видеофайлы. Далее, следует запустить плеер и переключиться на mka-дорожку. Подробное описание здесь
* Чтобы смотреть 10-битное видео (10bit), необходимо, исходя из ваших предпочтений используемого проигрывателя, воспользоваться
этой инструкцией.
* Чтобы смотреть с субтитрами, необходимо из папки Rus subs переписать файлы в папку, где находятся видеофайлы. В большинстве плееров, одноимённые субтитры подключатся автоматически.

#1 Battle Athletess Daiundoukai - OVA (6 эп.), оригинальный сериал, 1997
#2 Battle Athletess Daiundoukai (1997) - ТВ (26 эп.), ремейк оригинального сериала, 1997

01. Ready Go!
02. Kowloon's Attack!
03. The Night Of Woong-A-Ji
04. My Rival
05. Arrogance
06. The Return Home
07. Lamentation
08. The Sinking Talent
09. The Thing on the Other Side
10. The Promise Resurrected
11. Girl Meets Girls
12. There Go the Three!
13. There Go the Three Again!
14. There Go the New Three!
15. Light
16. Shadow
17. I'm Sorry
18. Reason to Fight
19. From Heart to Heart
20. Friend
21. Save the Last Dance For Me
22. Farewell & Introductions
23. Day of Resurrection
24. Cultural Catastrophe
25. Oh God! The Evil Trap of the Nerilians
26. Goal!

...241694
...2805640
- лучше качество видео
<div class="sp-wrap">
<div class="sp-head folded">Сравнения</div>
<div class="sp-body">Тут

Релиз Ya-san

Релиз MERDOK
</div>
</div>

Общее
Уникальный идентификатор : 204196391340167832248155952611276932068 (0x999ECB61D8F5C87E9905A44874D4C3E4)
Полное имя : D:\Торенты №2\Battle Athletes Victory [DVDRip 480p]\Battle Athletes Victory 01 (DVDRip 704x472 x264 AC3).mkv
Формат : Matroska
Версия формата : Version 2
Размер файла : 356 Мбайт
Продолжительность : 19 м. 32 с.
Общий поток : 2547 Кбит/сек
Дата кодирования : UTC 2011-03-07 15:04:35
Программа кодирования : mkvmerge v4.4.0 ('Die Wiederkehr') built on Oct 31 2010 21:52:48
Библиотека кодирования : libebml v1.0.0 + libmatroska v1.0.0

Видео
Идентификатор : 1
Формат : AVC
Формат/Информация : Advanced Video Codec
Профиль формата : [email protected]
Настройки формата : CABAC / 5 Ref Frames
Параметр CABAC формата : Да
Параметр RefFrames формата : 5 кадров
Идентификатор кодека : V_MPEG4/ISO/AVC
Продолжительность : 19 м. 32 с.
Битрейт : 2113 Кбит/сек
Ширина : 704 пикселя
Высота : 472 пикселя
Соотношение сторон : 4:3
Соотношение сторон в оригинале : 4:3
Режим частоты кадров : Постоянный
Частота кадров : 23,976 (24000/1001) кадра/сек
Цветовое пространство : YUV
Субдискретизация насыщенности : 4:2:0
Битовая глубина : 8 бит
Тип развёртки : Прогрессивная
Бит/(Пиксели*Кадры) : 0.265
Размер потока : 295 Мбайт (83%)
Библиотека кодирования : x264 core 112 r1867 22bfd31
Настройки программы : cabac=1 / ref=5 / deblock=1:-1:-1 / analyse=0x3:0x113 / me=esa / subme=9 / psy=1 / psy_rd=0.60:0.00 / mixed_ref=1 / me_range=32 / chroma_me=1 / trellis=2 / 8x8dct=1 / cqm=0 / deadzone=21,11 / fast_pskip=0 / chroma_qp_offset=-2 / threads=6 / sliced_threads=0 / nr=0 / decimate=1 / interlaced=0 / constrained_intra=0 / bframes=3 / b_pyramid=0 / b_adapt=2 / b_bias=1 / direct=3 / weightb=1 / open_gop=0 / weightp=2 / keyint=250 / keyint_min=23 / scenecut=40 / intra_refresh=0 / rc_lookahead=50 / rc=crf / mbtree=1 / crf=16.0 / qcomp=0.70 / qpmin=10 / qpmax=51 / qpstep=4 / vbv_maxrate=50000 / vbv_bufsize=50000 / crf_max=0.0 / nal_hrd=none / ip_ratio=1.40 / aq=1:0.90
Язык : Japanese
Default : Да
Forced : Нет
Цветовой диапазон : Limited
Основные цвета : BT.709
Характеристики трансфера : BT.709
Коэффициенты матрицы : BT.709

Аудио
Идентификатор : 2
Формат : AC-3
Формат/Информация : Audio Coding 3
Идентификатор кодека : A_AC3
Продолжительность : 19 м. 32 с.
Вид битрейта : Постоянный
Битрейт : 384 Кбит/сек
Каналы : 2 канала
Расположение каналов : Front: L R
Частота : 48,0 КГц
Частота кадров : 31,250 кадров/сек (1536 SPF)
Битовая глубина : 16 бит
Метод сжатия : С потерями
Размер потока : 53,7 Мбайт (15%)
Язык : Japanese
ServiceKind/String : Complete Main
Default : Да
Forced : Нет



Трекер:  [ 02-Июл-2018 13:01 ]

  

Скачать .torrent

Размер .torrent файла 30 KB


Размер: 9.2 GB
Хэш (hash) релиза: 600415bfbe8c0433967744b0c6658e3db812e315
Подписка на обновления:

Еще никто не оставлял запись к записи скачать торрент Боевые Атлеты: Победа Battle Athletess Daiundoukai . Будь первым!

!Обратная связь