Ein gesegnetes Team | Victor Sen Yung | Tirupati Express (2018) Hindi Dubbed 720p HDRip 1GB 350MB x264

Скачать через торрент Тайны города Эн Серии: 1-8 из 8 Фильм бесплатно в хорошем качестве torrent

Скачивайте на UnionPeer.org фильмы через торрент без регистрации. Новинки кино в хорошем качестве через торрент. На UnionPeer.org можно скачать через торрент фильмы 2014 и 2015 годов. Самые новые фильмы.

Скачать торрент Тайны города Эн Серии: 1-8 из 8 бесплатно через .torrent фильм мультфильм сериал

Статистика раздачи
Размер:  13.92 GB   |    Зарегистрирован:  18 дней   |    .torrent скачан:  33 раза   |   
Раздают:  1  
   
загрузка...
 
Автор Сообщение

Galfimbul

avatar Galfimbul


Тайны города Эн

Год выпуска: 2015
Производство: Марс Медиа
Жанр: детектив, драма
Продолжительность: ~00:51:00 серия
Субтитры: нет

Режиссёр: Николай Хомерики

В ролях: Светлана Колпакова, Дмитрий Поднозов, Кирилл Гребенщиков, Наталья Рогожкина, Анна Чиповская, Ольга Демидова, Наталья Батрак, Сергей Удовик, Игорь Хрипунов, Стася Хомерики-Гранковская, Владимир Селезнёв, Станислав Рядинский, Александр Васильев, Анатолий Друзенко, Павел Григорьев, Борис Войцеховский, Марина Куделинская, Никита Васильев

Описание: При въезде в маленький тихий городок находят тело подростка Алика. Неподалеку в овраге — машину ехавшего из Питера некоего Шацкого. Первоначальная версия ДТП отметается, когда у погибшего в легких обнаруживают воду. Но если его убили, то кто? Молодой следователь Анна подозревает чужака, ее начальник Михаил Сергеевич считает, что убийца — кто-то из своих. В ходе расследования, к которому, желая себя оправдать, подключается и Шацкий, выясняется, что у многих в этом городке были мотивы для убийства.

Реклама: Нет.

Кинопоиск
Все раздачи сериала
Sample

Качество: WEBRip 1080p - Getty
Формат: MKV
Видео кодек: H.264
Аудио кодек: AC3
Видео: MPEG4 AVC Video, H264, 16:9, 1920x1080, 25 fps, ~4600 kbps, 0.089 bit/pixel
Аудио: AC3 Dolby Digital, 48.0 kHz, 2/0 (L,R) ch, 192 kbps
General
Unique ID : 188569207231524056404750560197281445549 (0x8DDD1BB8372AE2889F7094115651F6AD)
Complete name : D:\Tainy.goroda.EN.2015.WEB-DL.(1080p).Getty\Tainy.goroda.EN.e01.2015.WEB-DL.(1080p).Getty.mkv
Format : Matroska
Format version : Version 4 / Version 2
File size : 1.72 GiB
Duration : 51 min 15 s
Overall bit rate mode : Variable
Overall bit rate : 4 809 kb/s
Movie name : Tainy.goroda.EN.e01.2015.WEB-DL.(1080p).Getty
Encoded date : UTC 2018-07-01 16:59:10
Writing application : mkvmerge v7.8.0 ('River Man') 32bit built on Mar 27 2015 16:18:02
Writing library : libebml v1.3.1 + libmatroska v1.4.2

Video
ID : 1
Format : AVC
Format/Info : Advanced Video Codec
Format profile : [email protected]
Format settings : CABAC / 4 Ref Frames
Format settings, CABAC : Yes
Format settings, ReFrames : 4 frames
Format settings, GOP : M=2, N=15
Codec ID : V_MPEG4/ISO/AVC
Duration : 51 min 15 s
Bit rate mode : Variable
Bit rate : 4 615 kb/s
Maximum bit rate : 4 878 kb/s
Width : 1 920 pixels
Height : 1 080 pixels
Display aspect ratio : 16:9
Frame rate mode : Constant
Frame rate : 25.000 FPS
Color space : YUV
Chroma subsampling : 4:2:0
Bit depth : 8 bits
Scan type : Progressive
Bits/(Pixel*Frame) : 0.089
Stream size : 1.65 GiB (96%)
Default : Yes
Forced : No

Audio
ID : 2
Format : AC-3
Format/Info : Audio Coding 3
Codec ID : A_AC3
Duration : 51 min 15 s
Bit rate mode : Constant
Bit rate : 192 kb/s
Channel(s) : 2 channels
Channel positions : Front: L R
Sampling rate : 48.0 kHz
Frame rate : 31.250 FPS (1536 SPF)
Bit depth : 16 bits
Compression mode : Lossy
Stream size : 70.4 MiB (4%)
Service kind : Complete Main
Default : Yes
Forced : No


Трекер:  [ 02-Июл-2018 12:42 ]

  

Скачать .torrent

Размер .torrent файла 70 KB


Размер: 13.92 GB
Хэш (hash) релиза: a5c0004c1246518840632036ebede938e2ce113b
Подписка на обновления:

Торренты, похожие на Тайны города Эн Серии: 1-8 из 8 скачать торрент

Форум Название Автор Размер S L Добавлен
Российские сериалы ·*· Тайны города ЭН / Серии: 1-8 из 8 (Николай Хомерики) [2015,детектив, драма, SATRip-AVC] aleksan55 62105111345.78 GB 0 0 1529912622

10:43

25-Июн-18

Российские сериалы ·%· Тайны города Эн / Серии: 1-8 из 8 (Николай Хомерики) [2015, детектив, драма, SATRip] Galfimbul 56989675525.31 GB 0 0 1529867544

22:12

24-Июн-18

Еще никто не оставлял запись к записи скачать торрент Тайны города Эн Серии: 1-8 из 8 . Будь первым!

!Обратная связь