Olivia Cooke | Beware the Slenderman. | Superman: The Man of Steel (1991-2003) #1

Скачать через торрент Семь смертных грехов: Возрождение заповедей бесплатно Аниме Все серии на русском torrent

Статистика раздачи
Размер:  13.04 GB   |    Зарегистрирован:  16 дней   |    .torrent скачан:  45 раз   |   
Раздают:  1  
   
загрузка...
 
Автор Сообщение

Galfimbul

avatar Galfimbul


Семь смертных грехов: Возрождение заповедей / Nanatsu no Taizai: Imashime no Fukkatsu / The Seven Deadly Sins: Revival of the Commandments / 七つの大罪 The Seven Deadly Sins 戒めの復活



Страна: Япония
Год выпуска: 2018 г.
Жанр: Приключения, комедия, фэнтези
Тип: TV
Продолжительность: 24 эпизодов по ~24 минуты
Режиссер: Фурута Такэси
Студия: A-1 Pictures Inc.



Перевод:

Русские субтитры: Ziggy Team (полные+надписи)
Переводчик: BadNewsZiggy
Редактор/Оформление: Angara

Русские субтитры: Pegasus sui vsem ken
Переводчик: Anku
Редактор/Тайм-код: mutagenb

Озвучка: Anilibria
- многоголосая: Hekomi, Kari, Cleo_chan, Anzen, Sharon - Semple
Тайминг: Alkhorus



Описание : Сильнейшие святые рыцари Лионесса, известные как «Семь смертных грехов», вместе с принцессой Элизабет смогли предотвратить переворот в королевстве и восстановить своё доброе имя. Но беда не приходит одна. Король Бартра увидел будущее, в котором над миром нависли десять зловещих теней. Камелоту, что находится к югу от Лионесса, грозит страшная опасность. Смогут ли справиться наши герои на этот раз?



world-art | AniDB | MyAnimeList | Офиц. Сайт



Автор рипа: Anoks

Качество: WEBRip
Тип релиза: Без хардсаба
Формат видео: mp4
Наличие линковки: Нет
Видео: AVC, 1920x1080 (16:9), 2792 kbps, 23.976 fps, 8bit
Аудио : Японский, AAС, 310 Кбит/с, 48.0 kHz, 2 ch (в составе контейнера)

Аудио: Русский, AAC, 192 Кбит/с, 48.0 kHz, 2 ch (внешним файлам)
Субтитры (ASS): Русские (внешними файлами)
Субтитры (ASS): Английские (внешними файлами) - Перевод: Chyuu
01. Возрождение клана демонов / Revival of the Demon Clan
02. Существование и доказательство / Existence and Proof
03. Священная реликвия Лоствейн / Sacred Treasure Lostvayne
04. Десять заповедей начинают действовать / The Ten Commandments on the Move
05. Ошеломляющая мощь / Overwhelming Violence
06. Искупление командира святых рыцарей / Atoning Great Holy Knight
07. Куда нас ведут воспоминания? / Where the Memories Lead
08. Священная земля друидов / The Druids` Holy Land
09. Клятва любимого человека / The Promise with the Loved One
10. То, чего нам не хватает / What We Lacked
11. Отец и сын / Father and Son
12. Там, где любовь / Where Love Is Found
13. Прощай, мой дорогой вор / Farewell, My Beloved Thief
14. Повелитель солнца / The Master of the Sun
15. Трепетная исповедь / A Horrifying Confession
16. Лабиринт из смертельных ловушек / Death-Trap Maze
17. Персонажи из преданий / Figures of Legend
18. Кому предназначен сей свет? / For Whom Doeth That Light Shine?
19. Мелиодас против Десяти Заповедей / Meliodas vs the Ten Commandments
20. В поисках надежды / In Search of Hope
21. Безграничное тепло / Warmth of Heart
22. Возвращение Греха / Return of the Sin
23. Герой восстал! / The Hero Rises
General
Complete name : E:/Torrent_2/Nanatsu no Taizai. Imashime no Fukkatsu (2018, AVC WEBRip-1080p, RUS JAP+SUB)/[Anoks] Nanatsu no Taizai Imashime no Fukkatsu - 01 [1080p].mp4
Format : MPEG-4
Format profile : Base Media
Codec ID : isom
File size : 543 MiB
Duration : 24mn 27s
Overall bit rate mode : Variable
Overall bit rate : 3 106 Kbps
Encoded date : UTC 2018-04-26 13:17:33
Tagged date : UTC 2018-04-26 13:17:33

Video #1
ID : 1
Format : AVC
Format/Info : Advanced Video Codec
Format profile : [email protected]
Format settings, CABAC : Yes
Format settings, ReFrames : 6 frames
Codec ID : avc1
Codec ID/Info : Advanced Video Coding
Duration : 24mn 27s
Bit rate : 2 792 Kbps
Maximum bit rate : 13.7 Mbps
Width : 1 920 pixels
Height : 1 080 pixels
Display aspect ratio : 16:9
Frame rate mode : Constant
Frame rate : 23.976 fps
Color space : YUV
Chroma subsampling : 4:2:0
Bit depth : 8 bits
Scan type : Progressive
Bits/(Pixel*Frame) : 0.056
Stream size : 488 MiB (90%)
Writing library : x264 core 148 r2744 b97ae06
Encoding settings : cabac=1 / ref=6 / deblock=1:1:1 / analyse=0x3:0x113 / me=hex / subme=7 / psy=1 / psy_rd=0.40:0.00 / mixed_ref=1 / me_range=16 / chroma_me=1 / trellis=1 / 8x8dct=1 / cqm=0 / deadzone=21,11 / fast_pskip=1 / chroma_qp_offset=-2 / threads=6 / lookahead_threads=1 / sliced_threads=0 / nr=0 / decimate=1 / interlaced=0 / bluray_compat=0 / constrained_intra=0 / bframes=5 / b_pyramid=2 / b_adapt=1 / b_bias=0 / direct=1 / weightb=1 / open_gop=0 / weightp=2 / keyint=240 / keyint_min=23 / scenecut=40 / intra_refresh=0 / rc_lookahead=40 / rc=crf / mbtree=1 / crf=18.0 / qcomp=0.60 / qpmin=0 / qpmax=69 / qpstep=4 / vbv_maxrate=168750 / vbv_bufsize=168750 / crf_max=0.0 / nal_hrd=none / filler=0 / ip_ratio=1.40 / aq=1:0.60
Encoded date : UTC 2018-04-26 13:17:33
Tagged date : UTC 2018-04-26 13:17:40
Color primaries : BT.709
Transfer characteristics : BT.709
Matrix coefficients : BT.709

Audio #2
ID : 2
Format : AAC
Format/Info : Advanced Audio Codec
Format profile : LC
Codec ID : 40
Duration : 24mn 27s
Bit rate mode : Variable
Bit rate : 310 Kbps
Maximum bit rate : 349 Kbps
Channel(s) : 2 channels
Channel positions : Front: L R
Sampling rate : 48.0 KHz
Compression mode : Lossy
Stream size : 54.2 MiB (10%)
Encoded date : UTC 2018-04-26 11:42:19
Tagged date : UTC 2018-04-26 13:17:40
TiredGirl - ...5522287 - 1080p, альтернативная озвучка
Моя максимальная скорость отдачи 100КБ/c
Раздаю с 7:00 до 00:00 по Москве

Трекер:  [ 02-Июл-2018 01:01 ]

  

Скачать .torrent

Размер .torrent файла 162 KB


Размер: 13.04 GB
Хэш (hash) релиза: 7a8ae768b8ee980dd7113e59327de41acd3a3850
Подписка на обновления:

Еще никто не оставлял запись к записи скачать торрент Семь смертных грехов: Возрождение заповедей . Будь первым!

!Обратная связь