Tomb Raider (2018) 1080p | Enterprise Application Architecture with .NET Core | Télécharger Part 5

Скачать через торрент Одессит Сезон: 1 Фильм бесплатно в хорошем качестве torrent

Скачивайте на UnionPeer.org фильмы через торрент без регистрации. Новинки кино в хорошем качестве через торрент. На UnionPeer.org можно скачать через торрент фильмы 2014 и 2015 годов. Самые новые фильмы.

Скачать торрент Одессит Сезон: 1 бесплатно через .torrent фильм мультфильм сериал

Статистика раздачи
Размер:  2.04 GB   |    Зарегистрирован:  19 дней   |    .torrent скачан:  65 раз   |   
Раздают:  1  
   
загрузка...
 
Автор Сообщение

Galfimbul

avatar Galfimbul


Одессит
> Год выпуска: 2013> Производство: «Кинокомпания «Русское»»> Жанр: Криминальный фильм, мелодрама> Продолжительность: ~ 42 мин.> Субтитры: Отсутствуют
> Режиссер: Игорь Копылов
> В ролях: Антон Макарский, Мария Горбань, Юрий Колокольников, Сергей Сафронов, Алексей Морозов, Максим Меркулов (II), Сергей Кошонин, Александр Макин, Игорь Головин, Геша Меньшиков, Олег Абалян, Олег Попов (II), Георгий Поздняков, Алексей Васильев (II), Татьяна Ткач, Александр Черкашин, Регина Щукина, Анна Черкашина, Анастасия Дюкова, Михаил Вассербаум, Владимир Богданов, Сергей Жукович, Дмитрий Петрушков, Андрей Тутов, Сергей Куницкий, Игорь Копылов, Ольга Калмыкова, Ольга Кирсанова-Миропольская, Андрей Некрасов (II), Василий Щипицын, Валентин Кузнецов (II), Кира Кауфман, Станислав Казаку, Алексей Астахов (II), Виталий Погосян, Алексей Петручик, Александр Бесфамильный (II), Валерий Бесфамильный, Дмитрий Цынкевич, Марк Гаврилов, Карина Миронова, Тимофей Гаврилов, Ольга Кадейкина, Александр Волков (IV), Наталья Внукова, Марианна Семёнова и др.
> Описание: Одесский оперативник Аркадий Резник решил навестить старого друга — частного детектива, живущего в Петербурге. Их встреча чуть не закончилась трагически: приятеля тяжело ранили прямо на глазах у Резника, и теперь он считает своим долгом выяснить, кто и за что хотел убить друга.Пустившись на поиски правды, Резник тут же попадает под прицел и следователей, и бандитов, и неведомых, но могущественных сил. Усложняют жизнь Аркадию и двое не слишком умных, но очень целеустремленных ребят — Эдик и Рома. Они прибыли в Петербург, чтобы «выбить должок» и передать Резнику «привет» из Одессы.Помощи ждать неоткуда, бороться со всеми придется одному. Единственный человек, на поддержку которого можно рассчитывать, — бывшая возлюбленная Таня. Несмотря на ее активное сопротивление, прежние романтические чувства вспыхнут с новой силой, ведь перед обаянием и напором этого одессита устоять практически невозможно.



> Релиз группы
> > Семпл > Кино-Театр
> Качество:HDTVRip [Источник HDTV 1080i]> Формат: AVI> Видео кодек: XviD> Аудио кодек: AC3> Видео: 720x400 (1.80:1), 25 fps, XviD build 73 ~1498 kbps avg, 0.21 bit/pixel> Аудио: 48 kHz, AC3 Dolby Digital, 2/0 (L,R) ch, ~192.00 kbps avg
General
Complete name                       : D:\Одессит\Odessit.s01e01.2013.HDTVRip.RG.Russkie.serialy.avi
Format                              : AVI
Format/Info                         : Audio Video Interleave
File size                           : 516 MiB
Duration                            : 42mn 27s
Overall bit rate                    : 1 700 Kbps
Writing application                 : VirtualDubMod 1.5.10.3 | www.virtualdub-fr.org || (build 2550/release)
Writing library                     : VirtualDubMod build 2550/release

Video
ID                                  : 0
Format                              : MPEG-4 Visual
Format profile                      : Advanced [email protected]
Format settings, BVOP               : 2
Format settings, QPel               : No
Format settings, GMC                : No warppoints
Format settings, Matrix             : Custom
Codec ID                            : XVID
Codec ID/Hint                       : XviD
Duration                            : 42mn 27s
Bit rate                            : 1 499 Kbps
Width                               : 720 pixels
Height                              : 400 pixels
Display aspect ratio                : 16:9
Frame rate                          : 25.000 fps
Color space                         : YUV
Chroma subsampling                  : 4:2:0
Bit depth                           : 8 bits
Scan type                           : Progressive
Compression mode                    : Lossy
Bits/(Pixel*Frame)                  : 0.208
Stream size                         : 455 MiB (88%)
Writing library                     : XviD 73

Audio
ID                                  : 1
Format                              : AC-3
Format/Info                         : Audio Coding 3
Mode extension                      : CM (complete main)
Format settings, Endianness         : Big
Codec ID                            : 2000
Duration                            : 42mn 27s
Bit rate mode                       : Constant
Bit rate                            : 192 Kbps
Channel(s)                          : 2 channels
Channel positions                   : Front: L R
Sampling rate                       : 48.0 KHz
Bit depth                           : 16 bits
Compression mode                    : Lossy
Stream size                         : 58.3 MiB (11%)
Alignment                           : Split accross interleaves
Interleave, duration                : 40 ms (1.00 video frame)
Interleave, preload duration        : 500 ms
<div class="sp-wrap">
<div class="sp-head folded">Сравнение
</div>
<div class="sp-body">Сравнение с этой раздачей ...4553020
http://screenshotcomparison.com/comparison/115780/picture:9</div>
</div>

Трекер:  [ 01-Июл-2018 18:42 ]

  

Скачать .torrent

Размер .torrent файла 11 KB


Размер: 2.04 GB
Хэш (hash) релиза: 9a4d7061504505a48b239c07e5b318b66d15330c
Подписка на обновления:

Еще никто не оставлял запись к записи скачать торрент Одессит Сезон: 1 . Будь первым!

!Обратная связь