Extinction | Constraints of a Business Plan - 7946 Words | #31.2. Chapter 31.2

Скачать через торрент Уходящая натура Сезон: 1 Фильм бесплатно в хорошем качестве torrent

Скачивайте на UnionPeer.org фильмы через торрент без регистрации. Новинки кино в хорошем качестве через торрент. На UnionPeer.org можно скачать через торрент фильмы 2014 и 2015 годов. Самые новые фильмы.

Скачать торрент Уходящая натура Сезон: 1 бесплатно через .torrent фильм мультфильм сериал

Статистика раздачи
Размер:  5.38 GB   |    Зарегистрирован:  2 месяца 22 дня   |    .torrent скачан:  69 раз   |   
Раздают:  1  
   
загрузка...
 
Автор Сообщение

Galfimbul

avatar Galfimbul


Уходящая натура
> Год выпуска: 2014> Производство: «Дирекция Кино»»> Жанр: Мелодрама> Продолжительность: ~ 52 мин.> Субтитры: Отсутствуют
> Режиссер: Дмитрий Иосифов
> В ролях: Сергей Колтаков, Мария Шукшина, Алёна Бабенко, Игорь Скляр, Лика Нифонтова, Анна Чиповская, Владимир Вдовиченков, Олег Тактаров, Вячеслав Гришечкин, Владимир Меньшов, Алексей Петренко, Александр Сирин, Владислав Ветров, Николай Стоцкий, Валерий Афанасьев, Борис Каморзин, Тимофей Трибунцев, Мария Звонарёва, Игорь Хрипунов, Вячеслав Жолобов, Юрий Борисов (II), Сергей Власов (S.A.V.), Виталий Бредихин, Сергей Походаев, Вячеслав Амирханян, Екатерина Кудринская, Геннадий Сайфулин, Олег Макаров, Ян Цапник, Казимир Лиске, Маркус Кунце, Андрей Сенькин, Вадим Допкюнас, Александр Подобед, Александр Кашперов (II), Александр Бранкевич, Анна Лаухина, Светлана Аникей, Иннокентий Сичкарь, Юрий Кулик (II), Александр Ильин (IV), Олег Ткачёв, Святослав Астрамович, Максим Кречетов, Валерия Арланова, Сергей Шульга (II), Евгения Кульбачная, Игорь Подливальчев, Тамара Миронова, Андрей Душечкин, Игорь Денисов, Владимир Грицевский, Леонид Улащенко, Владимир Золотухин, Валерий Кащеев, Олег Гарбуз, Сергей Журавель, Оксана Лесная и др.
> Описание: Конец семидесятых годов. Советская страна – «на марше». Выполняются и перевыполняются планы, строятся заводы-гиганты, полным ходом идёт подготовка к Олимпиаде.А известный режиссёр Звонарёв снимает фильм. Большой, масштабный фильм о колхозной деревне.Тем временем, давний друг и соавтор Звонарёва, режиссёр Кузьменко, сидит без работы: много пьёт, иногда буянит в Доме кино, однажды даже приходит в кабинет директора киностудии с пистолетом. Ему давно не дают снимать. Когда-то он сделал фильм, прозвучавший на весь мир, а теперь он – изгой и шут гороховый. Звонарёв, спасая приятеля от психушки, берёт его на свою картину.Отношения двух этих друзей-врагов – и есть смысловой центр нашего фильма. Скандалы, едва не доходящие до драк, сменяются примирениями. А тут ещё личные сложности: жена-актриса, требующая роль, любовница-актриса, которой тоже нужна работа и т. д. Личные и творческие проблемы кажутся иногда неразрешимыми…Однако, в конечном итоге, кино всё-таки удаётся снять. И это то кино, которое нам нравится до сих пор, которое мы смотрим и пересматриваем постоянно – «наше старое советское кино».



> Релиз группы
> > Семпл > Кино-Театр
> Качество:HDTVRip [Источник HDTV 1080i]> Формат: AVI> Видео кодек: XviD> Аудио кодек: AC3> Видео: 720x400 (1.80:1), 25 fps, XviD build 73 ~1496 kbps avg, 0.21 bit/pixel> Аудио: 48 kHz, AC3 Dolby Digital, 3/2 (L,C,R,l,r) + LFE ch, ~384.00 kbps avg
General
Complete name                       : D:\Уходящая натура\Uhodyaschaya.natura.s01e01.2014.HDTVRip.RG.Russkie.serialy.avi
Format                              : AVI
Format/Info                         : Audio Video Interleave
File size                           : 709 MiB
Duration                            : 52mn 28s
Overall bit rate                    : 1 890 Kbps
Writing application                 : VirtualDubMod 1.5.10.3 | www.virtualdub-fr.org || (build 2550/release)
Writing library                     : VirtualDubMod build 2550/release

Video
ID                                  : 0
Format                              : MPEG-4 Visual
Format profile                      : Advanced [email protected]
Format settings, BVOP               : 2
Format settings, QPel               : No
Format settings, GMC                : No warppoints
Format settings, Matrix             : Custom
Codec ID                            : XVID
Codec ID/Hint                       : XviD
Duration                            : 52mn 28s
Bit rate                            : 1 496 Kbps
Width                               : 720 pixels
Height                              : 400 pixels
Display aspect ratio                : 16:9
Frame rate                          : 25.000 fps
Color space                         : YUV
Chroma subsampling                  : 4:2:0
Bit depth                           : 8 bits
Scan type                           : Progressive
Compression mode                    : Lossy
Bits/(Pixel*Frame)                  : 0.208
Stream size                         : 562 MiB (79%)
Writing library                     : XviD 73

Audio
ID                                  : 1
Format                              : AC-3
Format/Info                         : Audio Coding 3
Mode extension                      : CM (complete main)
Format settings, Endianness         : Big
Codec ID                            : 2000
Duration                            : 52mn 28s
Bit rate mode                       : Constant
Bit rate                            : 384 Kbps
Channel(s)                          : 6 channels
Channel positions                   : Front: L C R, Side: L R, LFE
Sampling rate                       : 48.0 KHz
Bit depth                           : 16 bits
Compression mode                    : Lossy
Stream size                         : 144 MiB (20%)
Alignment                           : Split accross interleaves
Interleave, duration                : 40 ms (1.00 video frame)
Interleave, preload duration        : 500 ms
<div class="sp-wrap">
<div class="sp-head folded">Сравнение
</div>
<div class="sp-body">Сравнение с этой раздачей ...4887135
http://screenshotcomparison.com/comparison/115867/picture:7</div>
</div>

Трекер:  [ 01-Июл-2018 18:42 ]

  

Скачать .torrent

Размер .torrent файла 28 KB


Размер: 5.38 GB
Хэш (hash) релиза: ef9e2bc7944e2c3cb677845fffdb23d65c9a17cf
Подписка на обновления:

Еще никто не оставлял запись к записи скачать торрент Уходящая натура Сезон: 1 . Будь первым!

!Обратная связь