Francisco Reyes | Advanced Renamer 3 82 Commercial - SeuPirate | Disneys Wochenend-Kids

Скачать через торрент Анакоп Дайвер Фильм бесплатно в хорошем качестве torrent

Скачивайте на UnionPeer.org фильмы через торрент без регистрации. Новинки кино в хорошем качестве через торрент. На UnionPeer.org можно скачать через торрент фильмы 2014 и 2015 годов. Самые новые фильмы.

Скачать торрент Анакоп Дайвер бесплатно через .torrent фильм мультфильм сериал

Статистика раздачи
Размер:  2.08 GB   |    Зарегистрирован:  15 дней   |    .torrent скачан:  59 раз   |   
Раздают:  1  
   
загрузка...
 
Автор Сообщение

Galfimbul

avatar Galfimbul


Анакоп
Год выпуска: 2009► Производство: «Столичный кинематографист»► Жанр: Исторический фильм, приключения► Продолжительность: ~ 43 мин.► Субтитры: Отсутствуют
Режиссер: Евгений Соколов
В ролях: Антон Сёмкин, Василий Прокопьев, Владимир Ильин, Лариса Гузеева, Николай Лазарев, Сергей Пиотровский, Михаил Самохвалов, Наталья Оленина, Анна Соколова, Камран Абдуллаев, Ирина Лосева, Руслан Ягудин, Анатолий Калмыков, Михаил Водзуми, Юлия Беломытцева и др.
Описание: Название полнометражной версии - "Дайвер".В основу фильма легла легенда о генуэзских купцах, которые осваивали черноморское побережье нынешней Абхазии. Они снарядили и отправили корабль с золотой статуей первоапостола Симона Зилота и драгоценным алтарным убранством, предназначенные для храма, который купцы решили возвести, но корабль потерпел крушение..
Релиз группы
► ► СемплКино-Театр
Качество:SATRip [ Источник DVB]► Формат: AVI► Видео кодек: XviD► Аудио кодек: AC3► Видео: 704x400 (1.76:1), 25 fps, XviD build 73 ~1498 kbps avg, 0.21 bit/pixel► Аудио: 48 kHz, AC3 Dolby Digital, 2/0 (L,R) ch, ~192.00 kbps avg
General
Complete name                       : D:\Анакоп\Anakop.s01e01.2009.SATRip.RG.Russkie.serialy.avi
Format                              : AVI
Format/Info                         : Audio Video Interleave
File size                           : 529 MiB
Duration                            : 43mn 31s
Overall bit rate                    : 1 700 Kbps
Writing application                 : VirtualDubMod 1.5.10.3 | www.virtualdub-fr.org || (build 2550/release)
Writing library                     : VirtualDubMod build 2550/release

Video
ID                                  : 0
Format                              : MPEG-4 Visual
Format profile                      : Advanced [email protected]
Format settings, BVOP               : 2
Format settings, QPel               : No
Format settings, GMC                : No warppoints
Format settings, Matrix             : Custom
Codec ID                            : XVID
Codec ID/Hint                       : XviD
Duration                            : 43mn 31s
Bit rate                            : 1 498 Kbps
Width                               : 704 pixels
Height                              : 400 pixels
Display aspect ratio                : 16:9
Frame rate                          : 25.000 fps
Color space                         : YUV
Chroma subsampling                  : 4:2:0
Bit depth                           : 8 bits
Scan type                           : Progressive
Compression mode                    : Lossy
Bits/(Pixel*Frame)                  : 0.213
Stream size                         : 466 MiB (88%)
Writing library                     : XviD 73

Audio
ID                                  : 1
Format                              : AC-3
Format/Info                         : Audio Coding 3
Mode extension                      : CM (complete main)
Format settings, Endianness         : Big
Codec ID                            : 2000
Duration                            : 43mn 31s
Bit rate mode                       : Constant
Bit rate                            : 192 Kbps
Channel(s)                          : 2 channels
Channel positions                   : Front: L R
Sampling rate                       : 48.0 KHz
Bit depth                           : 16 bits
Compression mode                    : Lossy
Stream size                         : 59.8 MiB (11%)
Alignment                           : Split accross interleaves
Interleave, duration                : 40 ms (1.00 video frame)
Interleave, preload duration        : 500 ms
Сравнение с этой раздачей ...3927943
http://screenshotcomparison.com/comparison/115972/picture:7


Трекер:  [ 01-Июл-2018 18:42 ]

  

Скачать .torrent

Размер .torrent файла 11 KB


Размер: 2.08 GB
Хэш (hash) релиза: 5cd0cf104add6f595cd94e6421b7c6c76f8a911b
Подписка на обновления:

Еще никто не оставлял запись к записи скачать торрент Анакоп Дайвер . Будь первым!

!Обратная связь