PLK – Ténébreux 2017 | hd-real-720Triunfos Robados 3 | Salem (84)

Скачать через торрент Битва за Севастополь Сезон: 1 Фильм бесплатно в хорошем качестве torrent

Скачивайте на UnionPeer.org фильмы через торрент без регистрации. Новинки кино в хорошем качестве через торрент. На UnionPeer.org можно скачать через торрент фильмы 2014 и 2015 годов. Самые новые фильмы.

Скачать торрент Битва за Севастополь Сезон: 1 бесплатно через .torrent фильм мультфильм сериал

Статистика раздачи
Размер:  2.44 GB   |    Зарегистрирован:  4 месяца 13 дней   |    .torrent скачан:  119 раз   |   
Раздают:  1  
   
загрузка...
 
Автор Сообщение

Galfimbul

avatar Galfimbul


Битва за Севастополь
> Год выпуска: 2015> Производство: «Amalgama studio»»> Жанр: Военный фильм, драма> Продолжительность: ~ 46 мин.> Субтитры: Отсутствуют
> Режиссер: Сергей Мокрицкий
> В ролях: Юлия Пересильд, Евгений Цыганов, Олег Васильков, Никита Тарасов, Джоан Блэкхэм, Полина Пахомова (II), Владимир Лилицкий, Анатолий Кот, Нателла Абелева-Таганова, Валерий Гришко, Сергей Барковский, Виталий Линецкий, Сергей Пускепалис, Геннадий Ченцов, Светлана Осадченко, Алла Сергийко, Станислав Боклан, Дмитрий Лаленков, Станислав Лесной, Сергей Сипливый, Никита Тезин, Сергей Радченко (III), Вячеслав Николенко, Светлана Косолапова, Антон Соловей, Николай Боклан, Александр Новосёлов, Александр Герелес, Александр Ярема, Александр Крыжановский, Алик Шпилюк, Инга Нагорная, Илья Прокопив, Владимир Скорик, Сергей Малюга, Руслан Ганущак, Андрей Франчук, Игорь Цишкевич, Любовь Тимошевская, Владимир Заднепровский, Владлен Портников, Василий Сивохоп, Ирина Демидкина и др.
> Описание: Любовь под нескончаемым огнем противника, дружба с Элеонорой Рузвельт, выступление на конференции, повлиявшее на исход Второй Мировой Войны, желание жить и страх потерять любимого человека - справится ли со всем этим хрупкая женщина?

Это реальная история Людмилы Павличенко – легендарной женщины–снайпера. Солдаты шли в бой с ее именем на устах, а враги устроили на нее охоту. На поле битвы она видела смерть и страдания, но самым серьезным испытанием для нее стала любовь, которую у нее могла забрать война…



> Релиз группы
> > Семпл > Кино-Театр
> Качество:HDTVRip [Источник HDTV 1080i]> Формат: AVI> Видео кодек: XviD> Аудио кодек: AC3> Видео: 720x304 (2.37:1), 25 fps, XviD build 73 ~1499 kbps avg, 0.27 bit/pixel> Аудио: 48 kHz, AC3 Dolby Digital, 3/2 (L,C,R,l,r) + LFE ch, ~384.00 kbps avg
General
Complete name                       : D:\Битва за Севастополь\Bitva.za.Sevastopol.s01e01.2015.HDTVRip.RG.Russkie.serialy.avi
Format                              : AVI
Format/Info                         : Audio Video Interleave
File size                           : 618 MiB
Duration                            : 45mn 40s
Overall bit rate                    : 1 893 Kbps
Writing application                 : VirtualDubMod 1.5.10.3 | www.virtualdub-fr.org || (build 2550/release)
Writing library                     : VirtualDubMod build 2550/release

Video
ID                                  : 0
Format                              : MPEG-4 Visual
Format profile                      : Advanced Simple@L5
Format settings, BVOP               : 2
Format settings, QPel               : No
Format settings, GMC                : No warppoints
Format settings, Matrix             : Custom
Codec ID                            : XVID
Codec ID/Hint                       : XviD
Duration                            : 45mn 40s
Bit rate                            : 1 499 Kbps
Width                               : 720 pixels
Height                              : 304 pixels
Display aspect ratio                : 2.35:1
Frame rate                          : 25.000 fps
Color space                         : YUV
Chroma subsampling                  : 4:2:0
Bit depth                           : 8 bits
Scan type                           : Progressive
Compression mode                    : Lossy
Bits/(Pixel*Frame)                  : 0.274
Stream size                         : 490 MiB (79%)
Writing library                     : XviD 73

Audio
ID                                  : 1
Format                              : AC-3
Format/Info                         : Audio Coding 3
Mode extension                      : CM (complete main)
Format settings, Endianness         : Big
Codec ID                            : 2000
Duration                            : 45mn 39s
Bit rate mode                       : Constant
Bit rate                            : 384 Kbps
Channel(s)                          : 6 channels
Channel positions                   : Front: L C R, Side: L R, LFE
Sampling rate                       : 48.0 KHz
Bit depth                           : 16 bits
Compression mode                    : Lossy
Stream size                         : 125 MiB (20%)
Alignment                           : Split accross interleaves
Interleave, duration                : 40 ms (1.00 video frame)
Interleave, preload duration        : 500 ms
<div class="sp-wrap">
<div class="sp-head folded">Сравнение
</div>
<div class="sp-body">Сравнение с этой раздачей ...5177927
http://screenshotcomparison.com/comparison/116032/picture:7</div>
</div>

Трекер:  [ 01-Июл-2018 18:42 ]

  

Скачать .torrent

Размер .torrent файла 13 KB


Размер: 2.44 GB
Хэш (hash) релиза: 38134b32e0c630c1e22c34ad378c069cf8f00700
Подписка на обновления:

Еще никто не оставлял запись к записи скачать торрент Битва за Севастополь Сезон: 1 . Будь первым!

!Обратная связь